<?xml version="1.0" standalone="no"?>
<!DOCTYPE svg PUBLIC "-//W3C//DTD SVG 1.1//EN" "http://www.w3.org/Graphics/SVG/1.1/DTD/svg11.dtd" >
<svg>
<metadata>
Created by FontForge 20090914 at Thu Jul  5 13:13:11 2018
 By www-data
Copyright (c) ParaGraph Intl., 1990-1995. All Rights Reserved. ITC Bauhaus is a registered trade mark of International Typeface Corporation.
</metadata>
<defs>
<font id="BauhausC-Medium" horiz-adv-x="554" >
  <font-face 
    font-family="BauhausC Medium"
    font-weight="500"
    font-stretch="normal"
    units-per-em="1000"
    panose-1="4 0 6 0 0 0 0 0 0 0"
    ascent="769"
    descent="-231"
    x-height="480"
    cap-height="700"
    bbox="-65 -230.999 1055 900.999"
    underline-thickness="50"
    underline-position="-50"
    unicode-range="U+0020-U+2122"
  />
<missing-glyph horiz-adv-x="233" 
 />
    <glyph glyph-name=".notdef" horiz-adv-x="233" 
 />
    <glyph glyph-name="space" unicode=" " horiz-adv-x="233" 
 />
    <glyph glyph-name="exclam" unicode="!" horiz-adv-x="222" 
d="M64 160v540h88v-540h-88zM46 52c0 17.333 6 32 18 44s26.667 18 44 18s32 -6 44 -18s18 -26.667 18 -44s-6 -32 -18 -44s-26.667 -18 -44 -18s-32 6 -44 18s-18 26.667 -18 44z" />
    <glyph glyph-name="quotedbl" unicode="&#x22;" horiz-adv-x="333" 
d="M197 700h82v-270h-82v270zM55 700h82v-270h-82v270z" />
    <glyph glyph-name="numbersign" unicode="#" horiz-adv-x="556" 
d="M492 214h-97l-30 -214h-72l30 214h-119l-30 -214h-72l30 214h-100l3 64h106l20 144h-100l3 64h106l30 214h72l-30 -214h119l30 214h72l-30 -214h91l-3 -64h-97l-20 -144h91zM233 422l-20 -144h119l20 144h-119z" />
    <glyph glyph-name="dollar" unicode="$" horiz-adv-x="559" 
d="M318 700l135.001 -0.000976562v-84h-135v-177l43 -29c11.333 -7.33301 24.166 -15.166 38.499 -23.499s28 -18.666 41 -30.999s23.833 -27.666 32.5 -45.999s13 -41.5 13 -69.5c0 -46.667 -13.833 -82.334 -41.5 -107.001s-65.167 -37 -112.5 -37h-14v-108h-76v108h-160
v84h160v192l-36 22l-47.5 28c-15.667 9.33301 -30 20 -43 32s-23.5 26.167 -31.5 42.5s-12 36.5 -12 60.5c0 18 3 35.667 9 53s15.5 32.666 28.5 45.999s29.333 24 49 32s43.167 12 70.5 12h13v82h76v-82zM242.001 615.999l-11.999 0.000976562
c-19.333 0 -34.833 -5.5 -46.5 -16.5s-17.5 -24.167 -17.5 -39.5c0 -10.667 2.16699 -20.334 6.5 -29.001s9.66602 -16.334 15.999 -23.001s13.333 -12.667 21 -18s14.5 -9.66602 20.5 -12.999l12 -7v146zM318.002 180h8.99902c19.333 0 35 6 47 18s18 27.333 18 46
c0 20.667 -6.16699 37 -18.5 49s-26.166 23.333 -41.499 34l-14 10v-157z" />
    <glyph glyph-name="percent" unicode="%" horiz-adv-x="871" 
d="M49 548c0 23.333 4.33301 45 13 65s20.5 37.333 35.5 52s32.5 26.167 52.5 34.5s41 12.5 63 12.5s43 -4.16699 63 -12.5s37.5 -19.833 52.5 -34.5s26.833 -32 35.5 -52s13 -41.667 13 -65s-4.33301 -45 -13 -65s-20.5 -37.333 -35.5 -52s-32.5 -26.167 -52.5 -34.5
s-41 -12.5 -63 -12.5s-43 4.16699 -63 12.5s-37.5 19.833 -52.5 34.5s-26.833 32 -35.5 52s-13 41.667 -13 65zM127 548c0 -25.333 8.5 -46 25.5 -62s37.167 -24 60.5 -24s43.5 8 60.5 24s25.5 36.667 25.5 62c0 12.667 -2.33301 24.167 -7 34.5s-11 19.333 -19 27
s-17.167 13.667 -27.5 18s-21.5 6.5 -33.5 6.5c-22.667 0 -42.5 -8 -59.5 -24s-25.5 -36.667 -25.5 -62zM233 -12h-62l465 724h62zM493 152c0 23.333 4.33301 45 13 65s20.5 37.333 35.5 52s32.5 26.167 52.5 34.5s41 12.5 63 12.5s43 -4.16699 63 -12.5
s37.5 -19.833 52.5 -34.5s26.833 -32 35.5 -52s13 -41.667 13 -65s-4.33301 -45 -13 -65s-20.5 -37.333 -35.5 -52s-32.5 -26.167 -52.5 -34.5s-41 -12.5 -63 -12.5s-43 4.16699 -63 12.5s-37.5 19.833 -52.5 34.5s-26.833 32 -35.5 52s-13 41.667 -13 65zM571 152
c0 -25.333 8.5 -46 25.5 -62s37.167 -24 60.5 -24s43.5 8 60.5 24s25.5 36.667 25.5 62s-8.5 46 -25.5 62s-37.167 24 -60.5 24s-43.5 -8 -60.5 -24s-25.5 -36.667 -25.5 -62z" />
    <glyph glyph-name="ampersand" unicode="&#x26;" horiz-adv-x="648" 
d="M494 612l-264.998 -0.00390625h-22.5c-7 0 -10.5 -4 -10.5 -12c0 -4 1.33301 -9.16699 4 -15.5s8.66699 -15.166 18 -26.499l290 -375c7.33301 11.333 13 23.333 17 36s6 28.334 6 47.001c0 11.333 -0.833008 22.833 -2.5 34.5s-4.83398 23.834 -9.50098 36.501
s-11.334 26.167 -20.001 40.5s-20 29.833 -34 46.5l64 66c22 -20.667 39.5 -41.5 52.5 -62.5s22.667 -41 29 -60s10.333 -36.5 12 -52.5s2.5 -29.333 2.5 -40c0 -22 -2 -42.167 -6 -60.5s-8.83301 -34.5 -14.5 -48.5s-11.834 -26 -18.501 -36l-17 -25l82 -105h-110l-29 45
c-23.333 -17.333 -49.666 -31.166 -78.999 -41.499s-65 -15.5 -107 -15.5c-41.333 0 -79.833 7 -115.5 21s-66.834 33.5 -93.501 58.5s-47.667 55 -63 90s-23 73.5 -23 115.5c0 48 9.83301 92.167 29.5 132.5s49.834 73.833 90.501 100.5l-17 23
c-8.66699 11.333 -16.167 23.5 -22.5 36.5s-9.5 28.167 -9.5 45.5c0 10 1.83301 20.333 5.5 31s10 20.167 19 28.5s21.333 15.333 37 21s35.5 8.5 59.5 8.5h271v-88zM207.002 434.996c-15.333 -11.333 -28.166 -23.667 -38.499 -37s-18.833 -27 -25.5 -41
s-11.334 -28.167 -14.001 -42.5s-4 -27.833 -4 -40.5c0 -28 5 -54 15 -78s24.167 -45 42.5 -63s40 -32 65 -42s52.5 -15 82.5 -15c27.333 0 51 3.66699 71 11s37.667 17 53 29z" />
    <glyph glyph-name="quotesingle" unicode="'" horiz-adv-x="222" 
d="M70 700h82v-270h-82v270z" />
    <glyph glyph-name="parenleft" unicode="(" horiz-adv-x="399" 
d="M292 -188c-42 31.333 -77.168 65.832 -105.501 103.499s-51 76.334 -68 116.001s-29 79.5 -36 119.5s-10.5 78 -10.5 114c0 35.333 3.5 72.666 10.5 111.999s18.833 78.833 35.5 118.5s38.834 78 66.501 115s62.167 70.833 103.5 101.5l50 -54
c-20 -15.333 -40.5 -34.333 -61.5 -57s-40.167 -49.667 -57.5 -81s-31.5 -67.666 -42.5 -108.999s-16.5 -88.333 -16.5 -141c0 -58 6.33301 -109 19 -153s28 -82 46 -114s37.333 -58.667 58 -80s39 -38.333 55 -51z" />
    <glyph glyph-name="parenright" unicode=")" horiz-adv-x="399" 
d="M107 712c42 -31.333 77.001 -65.833 105.001 -103.5s50.5 -76.334 67.5 -116.001s29.167 -79.5 36.5 -119.5s11 -78 11 -114c0 -35.333 -3.5 -72.666 -10.5 -111.999s-18.833 -78.833 -35.5 -118.5s-38.834 -78 -66.501 -115s-62.167 -70.833 -103.5 -101.5l-50 54
c20 16 40.5 35.167 61.5 57.5s40.167 49.333 57.5 81s31.5 68 42.5 109s16.5 87.833 16.5 140.5c0 58 -6.33301 109.167 -19 153.5s-28 82.5 -46 114.5s-37.333 58.5 -58 79.5s-39 37.833 -55 50.5z" />
    <glyph glyph-name="asterisk" unicode="*" horiz-adv-x="500" 
d="M62 436l132 71l-132 69l38 62l124 -84l-12 146h76l-12 -146l124 84l38 -62l-132 -69l132 -71l-38 -62l-124 80l12 -140h-76l12 140l-124 -80z" />
    <glyph glyph-name="plus" unicode="+" horiz-adv-x="580" 
d="M251 480h78v-201h201v-78h-201v-201h-78v201h-201v78h201v201z" />
    <glyph glyph-name="comma" unicode="," horiz-adv-x="320" 
d="M104 96h94l-58 -196h-78z" />
    <glyph glyph-name="hyphen" unicode="-" horiz-adv-x="278" 
d="M27 200v80h224v-80h-224z" />
    <glyph glyph-name="hyphen" unicode="&#xad;" horiz-adv-x="278" 
d="M27 200v80h224v-80h-224z" />
    <glyph glyph-name="period" unicode="." horiz-adv-x="278" 
d="M80 53c0 16 5.83301 29.833 17.5 41.5s25.5 17.5 41.5 17.5s29.833 -5.83301 41.5 -17.5s17.5 -25.5 17.5 -41.5s-5.83301 -29.833 -17.5 -41.5s-25.5 -17.5 -41.5 -17.5s-29.833 5.83301 -41.5 17.5s-17.5 25.5 -17.5 41.5z" />
    <glyph glyph-name="slash" unicode="/" horiz-adv-x="356" 
d="M16 -12h-78l324 724h78z" />
    <glyph glyph-name="zero" unicode="0" horiz-adv-x="540" 
d="M33 451c0 36.667 4.83301 68.332 14.5 94.999s21.167 49.334 34.5 68.001s27.5 33.667 42.5 45s27.833 20 38.5 26c32.667 16.667 68.334 25 107.001 25s74.334 -8.33301 107.001 -25c10.667 -6 23.5 -14.667 38.5 -26s29.333 -26.333 43 -45s25.167 -41.667 34.5 -69
s14 -60 14 -98v-184c0 -14 -1 -32 -3 -54s-7.33301 -44.667 -16 -68s-21.667 -46.166 -39 -68.499s-41.333 -41.5 -72 -57.5c-32.667 -16.667 -68.334 -25 -107.001 -25s-74.334 8.33301 -107.001 25c-30.667 16 -54.667 35.167 -72 57.5s-30.333 45.166 -39 68.499
s-14 46 -16 68s-3 40 -3 54v188zM127 243.998c0 -52.667 12.501 -93.5 37.501 -122.5s60.167 -43.5 105.5 -43.5s80.5 14.5 105.5 43.5s37.5 69.833 37.5 122.5v203c0 62 -13.167 106.667 -39.5 134s-60.833 41 -103.5 41c-32.667 0 -58.5 -6.5 -77.5 -19.5
s-33.333 -28.833 -43 -47.5s-15.834 -38.5 -18.501 -59.5s-4 -39.167 -4 -54.5v-197z" />
    <glyph glyph-name="one" unicode="1" 
d="M331 700v-700h-94v612h-126l26 88h194z" />
    <glyph glyph-name="two" unicode="2" 
d="M510 0l-384.003 0.000976562c-17.333 0 -32 2.16699 -44 6.5s-21.667 10 -29 17s-12.666 14.833 -15.999 23.5s-5 17.667 -5 27c0 11.333 1.5 20.833 4.5 28.5s7.16699 14.5 12.5 20.5s11.333 11.333 18 16l21 15l234 183c11.333 8.66699 22.666 18 33.999 28
s21.5 21 30.5 33s16.333 25.333 22 40s8.5 31.334 8.5 50.001c0 16.667 -2.66699 33 -8 49s-13.666 30.333 -24.999 43s-25.666 22.834 -42.999 30.501s-38 11.5 -62 11.5c-22 0 -41.667 -3.66699 -59 -11s-32.166 -17.5 -44.499 -30.5s-21.833 -28 -28.5 -45
s-10 -35.167 -10 -54.5c0 -22.667 4.16699 -42.334 12.5 -59.001s19 -30.667 32 -42s27.5 -20 43.5 -26s31.333 -10 46 -12l-82 -65c-47.333 17.333 -83.5 44.166 -108.5 80.499s-37.5 77.5 -37.5 123.5c0 36.667 7 69.167 21 97.5s32.333 52.166 55 71.499
s48.5 34.166 77.5 44.499s58.833 15.5 89.5 15.5c32 0 61.833 -5.66699 89.5 -17s51.5 -26.833 71.5 -46.5s35.667 -43 47 -70s17 -56.167 17 -87.5s-4.5 -58.666 -13.5 -81.999s-21 -44.5 -36 -63.5s-32 -36.667 -51 -53s-38.833 -32.5 -59.5 -48.5l-195 -154h354v-88z" />
    <glyph glyph-name="three" unicode="3" 
d="M45 88l215.003 0.00488281c11.333 0 23.166 0.5 35.499 1.5s24.666 3.5 36.999 7.5s24.166 10.167 35.499 18.5s21.333 19.833 30 34.5c6.66699 10.667 11.167 22 13.5 34s3.5 24 3.5 36c0 19.333 -5.33301 38 -16 56c-10 16 -21.667 28.333 -35 37s-27.333 15 -42 19
s-29 6.33301 -43 7s-26.333 1 -37 1h-100v70l219 202h-300v88h286c10.667 0 22.834 -0.5 36.501 -1.5s26.167 -3.83301 37.5 -8.5s21 -12.334 29 -23.001s12 -25.334 12 -44.001c0 -12 -2.16699 -22.833 -6.5 -32.5s-9.83301 -18.5 -16.5 -26.5s-14 -15.333 -22 -22l-23 -19
l-111 -95c26 0.666992 49.333 -1.83301 70 -7.5s39 -13 55 -22s29.667 -18.833 41 -29.5s20.333 -21 27 -31c11.333 -16.667 19.666 -34.834 24.999 -54.501s8 -39.834 8 -60.501c0 -21.333 -2.33301 -42.333 -7 -63s-12.667 -40.334 -24 -59.001
c-14.667 -24.667 -30.667 -43.834 -48 -57.501s-35.5 -23.667 -54.5 -30s-38.667 -10.166 -59 -11.499s-40.5 -2 -60.5 -2h-211v88z" />
    <glyph glyph-name="four" unicode="4" 
d="M369 700l-252 -450h210v302l87 148h7v-450h105v-88h-105v-162h-94v162h-243c-23.333 0 -41.5 4.83301 -54.5 14.5s-19.5 23.167 -19.5 40.5c0 10.667 2.16699 21.167 6.5 31.5s11.833 24.833 22.5 43.5l227 408h103z" />
    <glyph glyph-name="five" unicode="5" 
d="M458 700l0.000976562 -88.001h-270v-182h67c16 0 33.833 -0.833008 53.5 -2.5s39.834 -5.5 60.501 -11.5s40.667 -15.167 60 -27.5s36.666 -29.5 51.999 -51.5c12 -17.333 20.833 -36.833 26.5 -58.5s8.5 -43.167 8.5 -64.5c0 -16.667 -1.5 -33 -4.5 -49
s-8.16699 -31.667 -15.5 -47c-13.333 -28 -29 -49.833 -47 -65.5s-37 -27.334 -57 -35.001s-40.5 -12.5 -61.5 -14.5s-40.833 -3 -59.5 -3h-215v88h219c10.667 0 22.167 0.5 34.5 1.5s24.166 3.33301 35.499 7s22.333 9.33398 33 17.001s20 18.167 28 31.5
c6 10 10.167 20.667 12.5 32s3.5 23 3.5 35c0 12.667 -1.16699 25 -3.5 37s-6.5 23.333 -12.5 34c-8.66699 14.667 -18.667 26 -30 34s-23.333 13.833 -36 17.5s-25.667 5.83398 -39 6.50098s-26 1 -38 1h-169v358h364z" />
    <glyph glyph-name="six" unicode="6" horiz-adv-x="552" 
d="M293 490c32.667 0.666992 63.3311 -4.82812 91.998 -16.4951s53.667 -28.334 75 -50.001s38 -47.334 50 -77.001s18 -62.167 18 -97.5c0 -36 -6.5 -69.667 -19.5 -101s-31 -58.666 -54 -81.999s-50.167 -41.833 -81.5 -55.5s-65 -20.5 -101 -20.5
c-34 0 -66.167 6.33301 -96.5 19s-56.666 30.167 -78.999 52.5s-40 48.666 -53 78.999s-19.5 63.166 -19.5 98.499c0 20.667 2.16699 40.334 6.5 59.001s10.5 36.5 18.5 53.5s17.5 34 28.5 51l35.5 52.5l173 245h114l-218 -306c-15.333 -21.333 -29.833 -44.333 -43.5 -69
s-20.5 -53 -20.5 -85c0 -25.333 4.33301 -48 13 -68s20.334 -37 35.001 -51s31.5 -24.667 50.5 -32s38.5 -11 58.5 -11c22 0 42.5 4.16699 61.5 12.5s35.833 19.666 50.5 33.999s26.167 31.5 34.5 51.5s12.5 42 12.5 66c0 32 -6.16699 58.833 -18.5 80.5
s-28 39.167 -47 52.5s-40 22.666 -63 27.999s-44.833 7.66602 -65.5 6.99902z" />
    <glyph glyph-name="seven" unicode="7" horiz-adv-x="555" 
d="M44 700h356.001c7.33301 0 16.666 -0.333008 27.999 -1s22.5 -3.16699 33.5 -7.5s20.5 -11.333 28.5 -21s12 -23.5 12 -41.5c0 -21.333 -4.83301 -42 -14.5 -62l-29.5 -63l-224 -504h-108l274 612h-356v88z" />
    <glyph glyph-name="eight" unicode="8" horiz-adv-x="540" 
d="M399 396c39.333 -19.333 67.835 -45.3301 85.502 -77.9971s26.5 -68 26.5 -106c0 -31.333 -5.5 -60.5 -16.5 -87.5s-26.833 -50.5 -47.5 -70.5s-46 -35.667 -76 -47s-63.667 -17 -101 -17c-36.667 0 -69.834 5.66699 -99.501 17s-55 27 -76 47s-37.167 43.5 -48.5 70.5
s-17 56.167 -17 87.5c0 39.333 10.167 75 30.5 107s47.5 57.667 81.5 77c-18.667 15.333 -34.334 34.666 -47.001 57.999s-19 50.666 -19 81.999c0 24 4.66699 46.5 14 67.5s22.5 39.5 39.5 55.5s37.5 28.5 61.5 37.5s50.333 13.5 79 13.5c32.667 0 61 -5 85 -15
s44 -23.167 60 -39.5s27.833 -35 35.5 -56s11.5 -42.167 11.5 -63.5c0 -24.667 -5 -49.334 -15 -74.001s-25.667 -46.667 -47 -66zM270.002 348.003c-43.333 0 -78.666 -12.333 -105.999 -37s-41 -57.334 -41 -98.001s13.667 -73.334 41 -98.001s62.666 -37 105.999 -37
s78.666 12.333 105.999 37s41 57.334 41 98.001s-13.667 73.334 -41 98.001s-62.666 37 -105.999 37zM268.002 432.003c28.667 0 52.334 8.83301 71.001 26.5s28 40.5 28 68.5s-9.33301 50.833 -28 68.5s-42 26.5 -70 26.5c-28.667 0 -52.5 -8.66699 -71.5 -26
s-28.5 -40.333 -28.5 -69c0 -28 9.16699 -50.833 27.5 -68.5s42.166 -26.5 71.499 -26.5z" />
    <glyph glyph-name="nine" unicode="9" horiz-adv-x="553" 
d="M259 208c-32.667 -1.33301 -63.334 4.00488 -92.001 16.0049s-53.5 29 -74.5 51s-37.667 48.167 -50 78.5s-18.5 63.166 -18.5 98.499s6.5 68.666 19.5 99.999s31 58.666 54 81.999s50 41.833 81 55.5s64.833 20.5 101.5 20.5c34.667 0 67 -6.33301 97 -19
s56.333 -30.334 79 -53.001s40.5 -49.834 53.5 -81.501s19.5 -66.5 19.5 -104.5c0 -22 -2.16699 -41.667 -6.5 -59s-10.5 -33.666 -18.5 -48.999s-17.5 -30.833 -28.5 -46.5l-36.5 -52.5l-173 -245h-114l218 306l25 35c8 11.333 15 23 21 35s10.667 24.333 14 37
s5 26.667 5 42c0 26 -4.33301 49.167 -13 69.5s-20.167 37.833 -34.5 52.5s-31 25.834 -50 33.501s-38.833 11.5 -59.5 11.5c-22 0 -42.667 -4 -62 -12s-36.166 -19.333 -50.499 -34s-25.833 -32.334 -34.5 -53.001s-13 -43.334 -13 -68.001c0 -50 14.333 -90.5 43 -121.5
s68.667 -46.5 120 -46.5h16.5c5.66699 0 11.167 0.333008 16.5 1z" />
    <glyph glyph-name="colon" unicode=":" horiz-adv-x="278" 
d="M80 341c0 16 5.83301 29.833 17.5 41.5s25.5 17.5 41.5 17.5s29.833 -5.83301 41.5 -17.5s17.5 -25.5 17.5 -41.5s-5.83301 -29.833 -17.5 -41.5s-25.5 -17.5 -41.5 -17.5s-29.833 5.83301 -41.5 17.5s-17.5 25.5 -17.5 41.5zM80 53c0 16 5.83301 29.833 17.5 41.5
s25.5 17.5 41.5 17.5s29.833 -5.83301 41.5 -17.5s17.5 -25.5 17.5 -41.5s-5.83301 -29.833 -17.5 -41.5s-25.5 -17.5 -41.5 -17.5s-29.833 5.83301 -41.5 17.5s-17.5 25.5 -17.5 41.5z" />
    <glyph glyph-name="semicolon" unicode=";" horiz-adv-x="296" 
d="M80 341c0 16 5.83301 29.833 17.5 41.5s25.5 17.5 41.5 17.5s29.833 -5.83301 41.5 -17.5s17.5 -25.5 17.5 -41.5s-5.83301 -29.833 -17.5 -41.5s-25.5 -17.5 -41.5 -17.5s-29.833 5.83301 -41.5 17.5s-17.5 25.5 -17.5 41.5zM104 96h94l-58 -196h-78z" />
    <glyph glyph-name="less" unicode="&#x3c;" horiz-adv-x="580" 
d="M530 70v-78l-480 214v68l480 214v-78l-383 -170z" />
    <glyph glyph-name="equal" unicode="=" horiz-adv-x="580" 
d="M530 300h-480v78h480v-78zM530 102h-480v78h480v-78z" />
    <glyph glyph-name="greater" unicode="&#x3e;" horiz-adv-x="580" 
d="M50 410v78l480 -214v-68l-480 -214v78l382 170z" />
    <glyph glyph-name="question" unicode="?" horiz-adv-x="444" 
d="M26 490c0 31.333 4.99609 60.499 14.9961 87.499s24.333 50.5 43 70.5s40.5 35.667 65.5 47s52.5 17 82.5 17c29.333 0 56.5 -5.33301 81.5 -16s46.833 -25.5 65.5 -44.5s33.167 -41.167 43.5 -66.5s15.5 -52.666 15.5 -81.999c0 -27.333 -4.5 -52.666 -13.5 -75.999
s-21.333 -44 -37 -62s-34.167 -32.833 -55.5 -44.5s-44.666 -19.834 -69.999 -24.501v-136h-88v220h35c42.667 0 75.834 11.333 99.501 34s35.5 52 35.5 88c0 16.667 -2.5 32.5 -7.5 47.5s-12.167 28 -21.5 39s-21.166 19.667 -35.499 26s-30.5 9.5 -48.5 9.5
c-22.667 0 -41.167 -4.66699 -55.5 -14s-25.666 -20.833 -33.999 -34.5s-14 -28.167 -17 -43.5s-4.5 -29.333 -4.5 -42h-94zM155.996 51.999c0 17.333 6 32 18 44s26.667 18 44 18s32 -6 44 -18s18 -26.667 18 -44s-6 -32 -18 -44s-26.667 -18 -44 -18s-32 6 -44 18
s-18 26.667 -18 44z" />
    <glyph glyph-name="at" unicode="@" horiz-adv-x="752" 
d="M463 210c-4 -4 -12.4961 -10.3311 -25.4961 -18.998s-32.833 -13 -59.5 -13c-22.667 0 -44.167 4 -64.5 12s-38.333 19.333 -54 34s-28 32.667 -37 54s-13.5 45.666 -13.5 72.999c0 21.333 2.83301 40.5 8.5 57.5s13 32 22 45s19.167 24 30.5 33s22.666 16.5 33.999 22.5
c25.333 12.667 53.333 19 84 19c30 0 56.167 -6 78.5 -18s40.166 -26.667 53.499 -44c17.333 -23.333 27.833 -47.833 31.5 -73.5s5.5 -50.834 5.5 -75.501v-37c0 -8 0.666992 -15.667 2 -23s7.66602 -11 18.999 -11c8 0 16 4.33301 24 13s15 20.334 21 35.001
s11 31.5 15 50.5s6 38.833 6 59.5c0 30 -3.83301 56.667 -11.5 80s-17.167 43.666 -28.5 60.999s-23.833 31.666 -37.5 42.999s-26.834 20.666 -39.501 27.999c-21.333 11.333 -43.833 19.5 -67.5 24.5s-47.5 7.5 -71.5 7.5c-25.333 0 -50.166 -3.16699 -74.499 -9.5
s-47.166 -15.833 -68.499 -28.5c-20.667 -12 -39.834 -26.833 -57.501 -44.5s-33 -37.667 -46 -60s-23.167 -46.833 -30.5 -73.5s-11 -55 -11 -85c0 -42.667 7.5 -82 22.5 -118s35.667 -67.167 62 -93.5s57.666 -46.833 93.999 -61.5s75.833 -22 118.5 -22
c16 0 33.667 1.5 53 4.5s39 8.16699 59 15.5s39.667 17.5 59 30.5s37.333 29.5 54 49.5l7 -77c-32 -30 -67.833 -52 -107.5 -66s-79.834 -21 -120.501 -21c-51.333 0 -99.333 9.33301 -144 28s-83.667 44.334 -117 77.001s-59.666 71.167 -78.999 115.5
s-29 91.833 -29 142.5c0 39.333 5.5 75.833 16.5 109.5s25.667 64 44 91s39.5 50.5 63.5 70.5s48.667 36.667 74 50c52 26.667 107.333 40 166 40c25.333 0 50.333 -2.33301 75 -7s48.667 -12.667 72 -24c20.667 -10 41.167 -22.833 61.5 -38.5s38.5 -34.5 54.5 -56.5
s28.833 -47.333 38.5 -76s14.5 -61 14.5 -97c0 -32.667 -4.16699 -63.334 -12.5 -92.001s-19.5 -53.5 -33.5 -74.5s-30.167 -37.667 -48.5 -50s-37.5 -18.5 -57.5 -18.5c-16.667 0 -29.667 3.5 -39 10.5s-16.333 15.333 -21 25s-7.66699 19.834 -9 30.501s-2 19.667 -2 27
v49c0 8 -0.666992 20 -2 36s-5.33301 32 -12 48s-17.167 30 -31.5 42s-34.833 18 -61.5 18c-16.667 0 -31.5 -3.16699 -44.5 -9.5s-24 -14.666 -33 -24.999s-15.833 -22.5 -20.5 -36.5s-7 -28.667 -7 -44c0 -32 10.667 -57.833 32 -77.5s47.333 -29.5 78 -29.5
c16 0 29.667 3.33301 41 10s23 16.667 35 30v-72z" />
    <glyph glyph-name="A" unicode="A" horiz-adv-x="594" 
d="M58 0v449.999c0 35.333 5.66699 68.666 17 99.999s27.5 58.833 48.5 82.5s46.167 42.5 75.5 56.5s62 21 98 21s68.667 -7 98 -21s54.5 -32.833 75.5 -56.5s37.167 -51.167 48.5 -82.5s17 -64.666 17 -99.999v-450h-94v318h-254v88h254v36
c0 54.667 -13.167 98.334 -39.5 131.001s-61.5 49 -105.5 49c-17.333 0 -34.666 -3.16699 -51.999 -9.5s-32.833 -16.5 -46.5 -30.5s-24.834 -32.5 -33.501 -55.5s-13 -51.167 -13 -84.5v-442h-94z" />
    <glyph glyph-name="B" unicode="B" horiz-adv-x="579" 
d="M58 0l0.998047 476.996c0 34.667 5.5 66.334 16.5 95.001s26.333 53.334 46 74.001s43 36.5 70 47.5s56.5 16.5 88.5 16.5c38.667 0 72.167 -5.83301 100.5 -17.5s51.833 -27 70.5 -46s32.667 -40.167 42 -63.5s14 -47 14 -71c0 -10.667 -1 -22.167 -3 -34.5
s-5.5 -24.666 -10.5 -36.999s-12.167 -24.166 -21.5 -35.499s-21.333 -21.333 -36 -30c6 -3.33301 14.667 -8.66602 26 -15.999s22.833 -18 34.5 -32s21.667 -31.5 30 -52.5s12.5 -46.5 12.5 -76.5c0 -24.667 -4 -48.834 -12 -72.501s-20.833 -44.834 -38.5 -63.501
s-40.834 -33.667 -69.501 -45s-64 -17 -106 -17h-125v88h120c8.66699 0 20.834 0.5 36.501 1.5s30.834 5 45.501 12s27.5 18.333 38.5 34s16.5 38.167 16.5 67.5c0 35.333 -11.833 63.333 -35.5 84s-54.5 31 -92.5 31h-129v88h94c16.667 0 33 2.16699 49 6.5
s30 10.833 42 19.5s21.667 19.5 29 32.5s11 28.167 11 45.5c0 14 -2.66699 27.667 -8 41s-13.333 25.333 -24 36s-23.667 19.167 -39 25.5s-33.333 9.5 -54 9.5c-17.333 0 -34.166 -3 -50.499 -9s-30.833 -15 -43.5 -27s-23 -27.167 -31 -45.5s-12 -40.166 -12 -65.499
l1 -475h-94z" />
    <glyph glyph-name="C" unicode="C" horiz-adv-x="502" 
d="M476 612h-66.002c-32 0 -61.167 -4.16699 -87.5 -12.5s-49.666 -19 -69.999 -32s-38 -27.833 -53 -44.5s-26.833 -33.334 -35.5 -50.001c-20 -37.333 -30 -78.333 -30 -123c0 -28 3.5 -55.167 10.5 -81.5s18.167 -50.833 33.5 -73.5c16 -24 33.333 -43 52 -57
s37.834 -24.667 57.501 -32s39 -12.166 58 -14.499s36.833 -3.5 53.5 -3.5h77v-88h-65c-24 0 -50.167 1.5 -78.5 4.5s-57.166 10 -86.499 21s-57.833 27.333 -85.5 49s-52.834 51.167 -75.501 88.5c-17.333 28 -29.833 58 -37.5 90s-11.5 64.333 -11.5 97
c0 36 4.66699 69.167 14 99.5s21.833 57.5 37.5 81.5s33.167 45.167 52.5 63.5s39 33.5 59 45.5c32 20 67.5 35 106.5 45s77.833 15 116.5 15h54v-88z" />
    <glyph glyph-name="D" unicode="D" horiz-adv-x="614" 
d="M58 0l-0.00292969 700h143c26.667 0 55.5 -2.16699 86.5 -6.5s61.833 -13.166 92.5 -26.499s59.834 -32.5 87.501 -57.5s52.167 -58.5 73.5 -100.5c24.667 -49.333 37 -102.333 37 -159c0 -28 -3 -55.333 -9 -82s-15.333 -52.334 -28 -77.001
c-12 -24 -27.667 -47.5 -47 -70.5s-41.666 -43.333 -66.999 -61s-53.666 -32 -84.999 -43s-65.333 -16.5 -102 -16.5h-48v88h37c40.667 0 76.5 7.33301 107.5 22s57.167 34.334 78.5 59.001s37.5 52.667 48.5 84s16.5 63.666 16.5 96.999c0 32 -5.5 63.667 -16.5 95
s-27.5 59.333 -49.5 84s-49.833 44.667 -83.5 60s-73.167 23 -118.5 23h-60v-612h-94z" />
    <glyph glyph-name="E" unicode="E" horiz-adv-x="508" 
d="M472 318h-338.001c3.33301 -32.667 12 -63 26 -91s32.333 -52.333 55 -73s49.334 -36.834 80.001 -48.501s64.667 -17.5 102 -17.5h75v-88h-70c-60.667 0 -113.834 10.5 -159.501 31.5s-83.834 48.167 -114.501 81.5s-53.667 70.833 -69 112.5s-23 83.167 -23 124.5
s7.66699 82.833 23 124.5s38.333 79.167 69 112.5s69 60.5 115 81.5s99.667 31.5 161 31.5h68v-88h-59c-36 0 -69.833 -4.83301 -101.5 -14.5s-59.667 -23.5 -84 -41.5s-44.666 -39.667 -60.999 -65s-27.166 -53.666 -32.499 -84.999h338v-88z" />
    <glyph glyph-name="F" unicode="F" horiz-adv-x="417" 
d="M58 0l-0.00195312 466.999c0 24.667 2.66699 50.667 8 78s16.833 52.5 34.5 75.5s42.834 42 75.501 57s76.334 22.5 131.001 22.5h84v-88h-95c-16 0 -32.5 -1.16699 -49.5 -3.5s-32.5 -8.16602 -46.5 -17.499s-25.5 -23.5 -34.5 -42.5s-13.5 -45.5 -13.5 -79.5v-77h239
v-88h-239v-304h-94z" />
    <glyph glyph-name="G" unicode="G" horiz-adv-x="793" 
d="M628 516c-9.33301 8.66699 -19.666 17.665 -30.999 26.998s-23 18 -35 26s-24.167 15.333 -36.5 22s-23.833 12 -34.5 16c-28 10 -57.667 15 -89 15c-45.333 0 -87.333 -10.333 -126 -31c-18.667 -10 -36.5 -22.833 -53.5 -38.5s-32 -33.667 -45 -54s-23.5 -43 -31.5 -68
s-12 -51.833 -12 -80.5c0 -37.333 6.83301 -72.5 20.5 -105.5s32.5 -61.833 56.5 -86.5s52.333 -44.167 85 -58.5s68 -21.5 106 -21.5c28.667 0 57.667 4.5 87 13.5s56 22.833 80 41.5s44.167 42.334 60.5 71.001s26.166 62.667 29.499 102h-244v88h342v-58
c0 -54.667 -10.333 -103.5 -31 -146.5s-47.834 -79.167 -81.501 -108.5s-71.667 -51.833 -114 -67.5s-85.166 -23.5 -128.499 -23.5c-49.333 0 -96 9.33301 -140 28s-82.833 44.334 -116.5 77.001s-60.334 70.834 -80.001 114.501s-29.5 90.5 -29.5 140.5
c0 32.667 4.5 64.667 13.5 96s22.167 61 39.5 89s38.333 53.667 63 77s52.667 42.666 84 57.999c27.333 13.333 55.833 23.333 85.5 30s59.834 10 90.501 10c35.333 0 69 -4.33301 101 -13c32 -9.33301 63.333 -23.5 94 -42.5s58.667 -42.5 84 -70.5z" />
    <glyph glyph-name="H" unicode="H" horiz-adv-x="608" 
d="M58 0v700h94v-294h304v294h94v-700h-94v318h-304v-318h-94z" />
    <glyph glyph-name="I" unicode="I" horiz-adv-x="210" 
d="M58 0v700h94v-700h-94z" />
    <glyph glyph-name="J" unicode="J" horiz-adv-x="347" 
d="M289 700l0.00195312 -473.995c0 -6.66699 -0.5 -16.834 -1.5 -30.501s-3.83301 -28.834 -8.5 -45.501s-11.667 -33.834 -21 -51.501s-22.833 -33.834 -40.5 -48.501s-39.834 -26.667 -66.501 -36s-59.334 -14 -98.001 -14h-55v88h51c34.667 0 61.667 5 81 15
s33.833 22.333 43.5 37s15.667 30.167 18 46.5s3.5 31.166 3.5 44.499v469h94z" />
    <glyph glyph-name="K" unicode="K" horiz-adv-x="576" 
d="M58 0l-0.000976562 699.999h94v-294h63c12.667 0 25 1.16699 37 3.5s23.333 7 34 14s21 16.667 31 29s19.667 28.833 29 49.5l89 198h105l-78 -171l-24.5 -51.5c-7 -14.333 -14 -26.833 -21 -37.5s-14.5 -20.167 -22.5 -28.5s-17.333 -16.166 -28 -23.499
c14.667 -3.33301 30.167 -8.66602 46.5 -15.999s31.5 -18.833 45.5 -34.5s25.5 -36.334 34.5 -62.001s13.5 -57.834 13.5 -96.501v-179h-94v180c0 11.333 -0.833008 24.833 -2.5 40.5s-6.5 30.834 -14.5 45.501s-20.167 27 -36.5 37s-39.166 15 -68.499 15h-138v-318h-94z
" />
    <glyph glyph-name="L" unicode="L" horiz-adv-x="383" 
d="M152 700l-0.00292969 -453.999c0 -9.33301 0.333008 -19.333 1 -30s2.5 -21.5 5.5 -32.5s7.33301 -22 13 -33s13.5 -21.167 23.5 -30.5c17.333 -16 35.333 -25.333 54 -28s35 -4 49 -4h87v-88h-85c-25.333 0 -50.666 2.16699 -75.999 6.5s-49.666 14.166 -72.999 29.499
c-20.667 14 -37.167 29.833 -49.5 47.5s-21.666 36 -27.999 55s-10.5 37.667 -12.5 56s-3 35.5 -3 51.5v454h94z" />
    <glyph glyph-name="M" unicode="M" horiz-adv-x="786" 
d="M4 0l77.002 611c1.33301 9.33301 3.16602 19.833 5.49902 31.5s6.5 22.5 12.5 32.5s14.167 18.333 24.5 25s23.833 10 40.5 10c14 0 25.833 -2.83301 35.5 -8.5s17.834 -13.167 24.501 -22.5s12.167 -19.833 16.5 -31.5s8.16602 -23.167 11.499 -34.5l141 -463l141 463
c3.33301 11.333 7.16602 22.833 11.499 34.5s9.83301 22.167 16.5 31.5s14.834 16.833 24.501 22.5s21.5 8.5 35.5 8.5c16.667 0 30.167 -3.33301 40.5 -10s18.5 -15 24.5 -25s10.167 -20.833 12.5 -32.5s4.16602 -22.167 5.49902 -31.5l77 -611h-98l-69 568l-150 -496
c-3.33301 -11.333 -6.83301 -22 -10.5 -32s-8.16699 -18.667 -13.5 -26s-11.833 -13.166 -19.5 -17.499s-17.167 -6.5 -28.5 -6.5s-20.833 2.16699 -28.5 6.5s-14.167 10.166 -19.5 17.499s-9.83301 16 -13.5 26s-7.16699 20.667 -10.5 32l-150 496l-69 -568h-98z" />
    <glyph glyph-name="N" unicode="N" horiz-adv-x="626" 
d="M58 0l0.00292969 598c0 12 0.5 24.5 1.5 37.5s4.16699 25 9.5 36s13.5 20.167 24.5 27.5s26.5 11 46.5 11c27.333 0 48.166 -9 62.499 -27s29.166 -43.333 44.499 -76l225 -469h2v562h94v-608c0 -10 -0.333008 -21 -1 -33s-3.33398 -23 -8.00098 -33
s-11.834 -18.5 -21.501 -25.5s-23.5 -10.5 -41.5 -10.5c-14.667 0 -26.834 2 -36.501 6s-18.167 9.5 -25.5 16.5s-13.666 15.333 -18.999 25s-10.666 20.167 -15.999 31.5l-245 505h-2v-574h-94z" />
    <glyph glyph-name="O" unicode="O" horiz-adv-x="800" 
d="M36 350c0 50 9.83301 96.833 29.5 140.5s46.167 81.834 79.5 114.501s72 58.334 116 77.001s90.333 28 139 28s95 -9.33301 139 -28s82.667 -44.334 116 -77.001s59.833 -70.834 79.5 -114.501s29.5 -90.5 29.5 -140.5s-9.83301 -96.833 -29.5 -140.5
s-46.167 -81.834 -79.5 -114.501s-72 -58.334 -116 -77.001s-90.333 -28 -139 -28s-95 9.33301 -139 28s-82.667 44.334 -116 77.001s-59.833 70.834 -79.5 114.501s-29.5 90.5 -29.5 140.5zM134 350c0 -36.667 6.66699 -71.5 20 -104.5s32 -61.833 56 -86.5
s52.167 -44.334 84.5 -59.001s67.5 -22 105.5 -22s73.167 7.33301 105.5 22s60.5 34.334 84.5 59.001s42.667 53.5 56 86.5s20 67.833 20 104.5s-6.66699 71.5 -20 104.5s-32 61.833 -56 86.5s-52.167 44.334 -84.5 59.001s-67.5 22 -105.5 22s-73.167 -7.33301 -105.5 -22
s-60.5 -34.334 -84.5 -59.001s-42.667 -53.5 -56 -86.5s-20 -67.833 -20 -104.5z" />
    <glyph glyph-name="P" unicode="P" horiz-adv-x="561" 
d="M58 0l0.00195312 459.999c0 40 5.66699 75.5 17 106.5s27.166 57.167 47.499 78.5s44.666 37.5 72.999 48.5s59.833 16.5 94.5 16.5c38.667 0 72.667 -6.33301 102 -19s53.833 -29.834 73.5 -51.501s34.5 -46.834 44.5 -75.501s15 -58.667 15 -90
c0 -39.333 -9 -76 -27 -110c-14 -26 -30 -46.167 -48 -60.5s-36.833 -25.166 -56.5 -32.499s-40 -11.833 -61 -13.5s-41.5 -2.5 -61.5 -2.5h-83v88h94c46 0 81.5 12.333 106.5 37s37.5 56.667 37.5 96c0 18.667 -2.83301 36.834 -8.5 54.501s-14.167 33.334 -25.5 47.001
s-25.5 24.5 -42.5 32.5s-37.167 12 -60.5 12c-43.333 0 -77 -14.833 -101 -44.5s-36 -67.5 -36 -113.5v-464h-94z" />
    <glyph glyph-name="Q" unicode="Q" horiz-adv-x="804" 
d="M469 -144l-94.002 0.00195312v372h94v-144c36.667 9.33301 67.667 23.666 93 42.999s46 41.166 62 65.499s27.667 50 35 77s11 53.167 11 78.5c0 37.333 -6.66699 72.5 -20 105.5s-32 62 -56 87s-52.333 44.833 -85 59.5s-68.334 22 -107.001 22
c-38 0 -73.333 -7.33301 -106 -22s-61 -34.5 -85 -59.5s-42.833 -54 -56.5 -87s-20.5 -68.167 -20.5 -105.5c0 -27.333 4.33301 -54.666 13 -81.999s21.5 -52.833 38.5 -76.5s38.333 -44.667 64 -63s55.5 -31.833 89.5 -40.5v-90c-51.333 10 -96 27.5 -134 52.5
s-69.5 53.833 -94.5 86.5s-43.667 67.5 -56 104.5s-18.5 73.167 -18.5 108.5c0 50 9.83301 97 29.5 141s46.334 82.333 80.001 115s72.5 58.5 116.5 77.5s90.667 28.5 140 28.5c48.667 0 95.167 -9.5 139.5 -28.5s83.333 -44.833 117 -77.5s60.334 -71 80.001 -115
s29.5 -91 29.5 -141c0 -38 -6.5 -76 -19.5 -114s-32.167 -73.167 -57.5 -105.5s-56.666 -60.333 -93.999 -84s-80 -39.834 -128 -48.501v-140z" />
    <glyph glyph-name="R" unicode="R" 
d="M58 0l0.000976562 443.001c0 18.667 0.833008 38.667 2.5 60s6 42.5 13 63.5s17.667 41.167 32 60.5s33.833 36.666 58.5 51.999c18.667 11.333 38.834 19.333 60.501 24s43.5 7 65.5 7c42.667 0 82 -10 118 -30c12 -6.66699 23.833 -15 35.5 -25s22.167 -22 31.5 -36
s16.833 -30 22.5 -48s8.5 -38 8.5 -60c0 -7.33301 -0.666992 -17.333 -2 -30s-4.66602 -26.167 -9.99902 -40.5s-13.333 -29 -24 -44s-25.667 -28.167 -45 -39.5c21.333 -8 38.166 -18.333 50.499 -31s21.666 -26.5 27.999 -41.5s10.333 -31.167 12 -48.5
s2.5 -34.333 2.5 -51v-185h-94v185c0 28 -4.33301 50.167 -13 66.5s-19.167 28.5 -31.5 36.5s-25.5 13 -39.5 15s-26 3 -36 3h-116v88h79c27.333 0 50.333 3.5 69 10.5s33.667 16 45 27s19.333 23.167 24 36.5s7 26.666 7 39.999c0 16 -2.16699 29.833 -6.5 41.5
s-9.83301 21.5 -16.5 29.5s-13.834 14.667 -21.501 20s-14.5 9.33301 -20.5 12c-16.667 7.33301 -35.667 11 -57 11c-10.667 0 -21 -0.833008 -31 -2.5s-19.667 -4.83398 -29 -9.50098c-19.333 -9.33301 -34.333 -20.666 -45 -33.999s-18.5 -27.666 -23.5 -42.999
s-7.83301 -31 -8.5 -47s-1 -31 -1 -45v-441h-94z" />
    <glyph glyph-name="S" unicode="S" horiz-adv-x="503" 
d="M26 88l229.006 -0.00195312c12 0 25.333 0.833008 40 2.5s28.5 5.33398 41.5 11.001s24 14 33 25s13.5 26.167 13.5 45.5c0 18.667 -3.83301 34.834 -11.5 48.501s-18.334 25.834 -32.001 36.501s-29.667 20.667 -48 30s-38.5 19 -60.5 29l-45.5 21.5
c-15.667 7.66699 -30.834 16 -45.501 25s-28.5 18.667 -41.5 29s-24.167 21.833 -33.5 34.5c-10.667 14.667 -19 30.667 -25 48s-9 35.333 -9 54c0 17.333 2.16699 34.166 6.5 50.499s11.166 31.5 20.499 45.5c12 18 25.5 32 40.5 42s30.5 17.5 46.5 22.5
s31.833 8.16699 47.5 9.5s30.167 2 43.5 2h210v-88h-216c-18.667 0 -36.334 -1.5 -53.001 -4.5s-30.667 -13.833 -42 -32.5c-6.66699 -10.667 -10 -23 -10 -37c0 -20.667 5.33301 -38.334 16 -53.001c8 -11.333 21 -22.833 39 -34.5s47 -26.834 87 -45.501l47.5 -23
c16.333 -8 32.166 -16.5 47.499 -25.5s29.666 -19 42.999 -30s25 -22.833 35 -35.5c11.333 -15.333 20.333 -32.666 27 -51.999s10 -38.666 10 -57.999c0 -17.333 -2 -34 -6 -50s-10.667 -31.333 -20 -46c-12 -19.333 -25.333 -34.666 -40 -45.999s-30 -19.833 -46 -25.5
s-32.667 -9.33398 -50 -11.001s-34.333 -2.5 -51 -2.5h-238v88z" />
    <glyph glyph-name="T" unicode="T" horiz-adv-x="444" 
d="M2 700h440v-88h-173v-612h-94v612h-173v88z" />
    <glyph glyph-name="U" unicode="U" horiz-adv-x="579" 
d="M152 700l-0.00292969 -445.996c0 -5.33301 0.333008 -13.333 1 -24s2.16699 -22.5 4.5 -35.5s6.33301 -26.333 12 -40s13.667 -26.167 24 -37.5s23.166 -20.666 38.499 -27.999s34.333 -11 57 -11s41.834 3.66699 57.501 11s28.667 16.666 39 27.999
s18.166 23.833 23.499 37.5s9.33301 27 12 40s4.33398 24.833 5.00098 35.5s1 18.667 1 24v446h94v-440c0 -20 -1.33301 -41.167 -4 -63.5s-8.16699 -44.333 -16.5 -66s-20.666 -42.334 -36.999 -62.001s-38.5 -36.834 -66.5 -51.501c-33.333 -18 -69.333 -27 -108 -27
c-18.667 0 -37.167 2.16699 -55.5 6.5s-35.833 11.166 -52.5 20.499c-27.333 14.667 -49.166 32 -65.499 52s-28.666 40.667 -36.999 62s-13.833 43.166 -16.5 65.499s-4 43.5 -4 63.5v440h94z" />
    <glyph glyph-name="V" unicode="V" horiz-adv-x="576" 
d="M94 700l193.999 -581l194 581h98l-196 -590c-6 -19.333 -11.667 -36.333 -17 -51s-11.166 -27.167 -17.499 -37.5s-14.333 -18.166 -24 -23.499s-22.167 -8 -37.5 -8c-12 0 -22.167 1.66699 -30.5 5s-15.833 9.16602 -22.5 17.499s-13.167 19.5 -19.5 33.5
s-12.833 31.667 -19.5 53l-200 601h98z" />
    <glyph glyph-name="W" unicode="W" horiz-adv-x="906" 
d="M152 249c0 -14.667 0.166016 -29.1631 0.499023 -43.4961s2.16602 -28 5.49902 -41s8.83301 -25.333 16.5 -37s19.167 -22.167 34.5 -31.5c10.667 -6.66699 21.834 -11.334 33.501 -14.001s23.834 -4 36.501 -4c13.333 0 26 1.33301 38 4s23.667 7.66699 35 15
c14.667 9.33301 25.667 19.666 33 30.999s12.5 23.5 15.5 36.5s4.66699 26.667 5 41s0.5 28.833 0.5 43.5v451h94v-451c0 -14.667 0.166992 -29.167 0.5 -43.5s2 -28 5 -41s8.16699 -25.167 15.5 -36.5s18.333 -21.666 33 -30.999c10 -6.66699 21.333 -11.5 34 -14.5
s25.5 -4.5 38.5 -4.5s25.667 1.5 38 4.5s23.166 7.5 32.499 13.5c14.667 8.66699 25.834 18.834 33.501 30.501s13.334 24 17.001 37s5.66699 26.667 6 41s0.5 29.166 0.5 44.499v451h94v-445c0 -22 -0.833008 -44.5 -2.5 -67.5s-6.33398 -45.333 -14.001 -67
s-19.334 -42 -35.001 -61s-37.5 -35.167 -65.5 -48.5c-24.667 -12 -51.834 -18.833 -81.501 -20.5s-58.167 1.16602 -85.5 8.49902s-49.666 18.166 -66.999 32.499s-32 30.833 -44 49.5c-12 -18.667 -26.667 -35.167 -44 -49.5s-39.666 -25.166 -66.999 -32.499
c-22 -6 -44 -9 -66 -9c-17.333 0 -34.666 1.66699 -51.999 5s-34 8.66602 -50 15.999c-28 13.333 -49.667 29.666 -65 48.999s-26.833 40 -34.5 62s-12.334 44.333 -14.001 67s-2.5 44.667 -2.5 66v445h94v-451z" />
    <glyph glyph-name="X" unicode="X" horiz-adv-x="557" 
d="M5 700c28 -0.666992 56.167 -5.00098 84.5 -13.001s55 -20.167 80 -36.5s47.167 -37 66.5 -62s33.666 -54.5 42.999 -88.5c8.66699 34 22.667 63.5 42 88.5s41.5 45.667 66.5 62s51.667 28.5 80 36.5s56.5 12.333 84.5 13v-88c-34 0 -64.833 -6.66699 -92.5 -20
s-51.5 -31.833 -71.5 -55.5s-35.333 -51.5 -46 -83.5s-16 -66.333 -16 -103c0 -36 5.5 -70 16.5 -102s26.5 -60 46.5 -84s44 -42.833 72 -56.5s58.667 -20.167 92 -19.5v-88c-35.333 0 -68 5.33301 -98 16s-56.833 25 -80.5 43s-43.5 39.167 -59.5 63.5
s-28 50.166 -36 77.499c-8 -27.333 -20.167 -53.166 -36.5 -77.499s-36.166 -45.5 -59.499 -63.5s-50 -32.333 -80 -43s-63 -16 -99 -16v88c34 -0.666992 65 5.83301 93 19.5s52 32.334 72 56.001s35.5 51.5 46.5 83.5s16.5 66.333 16.5 103s-5.33301 71 -16 103
s-26 59.667 -46 83s-44 41.833 -72 55.5s-59 20.5 -93 20.5v88v0z" />
    <glyph glyph-name="Y" unicode="Y" horiz-adv-x="508" 
d="M207 0l0.00195312 274c-59.333 12.667 -104 39.5 -134 80.5s-45 88.833 -45 143.5v202h94v-203c0 -40.667 10.667 -73.334 32 -98.001s54.666 -37 99.999 -37s78.666 12.333 99.999 37s32 57.334 32 98.001v203h94v-202c0 -54.667 -15 -102.5 -45 -143.5
s-74.667 -67.833 -134 -80.5v-274h-94z" />
    <glyph glyph-name="Z" unicode="Z" horiz-adv-x="492" 
d="M50 612l-0.000976562 88.0029h313c11.333 0 23.5 -0.333008 36.5 -1s24.833 -3 35.5 -7s19.5 -10.833 26.5 -20.5s10.5 -23.5 10.5 -41.5c0 -4.66699 -0.333008 -9.83398 -1 -15.501s-2.5 -12.167 -5.5 -19.5s-7.5 -16.166 -13.5 -26.499s-14 -22.5 -24 -36.5l-315 -444
h367v-88h-350c-10 0 -21.833 0.166992 -35.5 0.5s-26.667 2.66602 -39 6.99902s-22.666 11.666 -30.999 21.999s-12.5 25.166 -12.5 44.499c0 21.333 5 40 15 56s19.667 30.667 29 44l315 438h-321z" />
    <glyph glyph-name="bracketleft" unicode="[" horiz-adv-x="389" 
d="M112 -176v876h174v-46h-86v-784h86v-46h-174z" />
    <glyph glyph-name="backslash" unicode="\" horiz-adv-x="356" 
d="M16 712l324 -724h-78l-324 724h78z" />
    <glyph glyph-name="bracketright" unicode="]" horiz-adv-x="389" 
d="M277 700v-876h-174v46h86v784h-86v46h174z" />
    <glyph glyph-name="asciicircum" unicode="^" horiz-adv-x="602" 
d="M141 286h-84l206 414h76l206 -414h-84l-160 328z" />
    <glyph glyph-name="underscore" unicode="_" 
d="M27 -125v50h500v-50h-500z" />
    <glyph glyph-name="grave" unicode="`" horiz-adv-x="439" 
d="M168 680l90 -142h-68l-130 142h108z" />
    <glyph glyph-name="a" unicode="a" horiz-adv-x="572" 
d="M408 36c-19.333 -15.333 -40.3301 -26.834 -62.9971 -34.501s-48 -11.5 -76 -11.5c-34 0 -65.667 5.66699 -95 17s-55 27.666 -77 48.999s-39.333 46.833 -52 76.5s-19 63.167 -19 100.5c0 38.667 6.83301 73.834 20.5 105.501s32.334 58.834 56.001 81.501s51 40 82 52
s63.833 18 98.5 18c31.333 0 61.833 -5 91.5 -15s56.167 -26.167 79.5 -48.5s42.166 -51.166 56.499 -86.499s21.5 -78 21.5 -128v-212h-88v215c0 40 -5.5 72.5 -16.5 97.5s-24.667 44.5 -41 58.5s-34 23.333 -53 28s-36.833 7 -53.5 7
c-22.667 0 -43.834 -3.83301 -63.501 -11.5s-37 -18.667 -52 -33s-26.833 -31.833 -35.5 -52.5s-13 -44 -13 -70c0 -30 5.33301 -55.5 16 -76.5s24.167 -38 40.5 -51s34.166 -22.5 53.499 -28.5s38 -9 56 -9c25.333 0 48.166 4.66699 68.499 14s39.5 22.666 57.5 39.999v-92
z" />
    <glyph glyph-name="b" unicode="b" horiz-adv-x="568" 
d="M128 284c0 -13.333 0.666016 -29.333 1.99902 -48s5.16602 -37.667 11.499 -57s16.333 -37.5 30 -54.5s32.834 -30.167 57.501 -39.5c20 -7.33301 40 -11 60 -11c24 0 45.833 4.16699 65.5 12.5s36.834 19.833 51.501 34.5s26 32.334 34 53.001s12 43 12 67
c0 23.333 -3.66699 45.166 -11 65.499s-18 37.833 -32 52.5s-31 26.167 -51 34.5s-42.333 12.5 -67 12.5c-27.333 0 -52 -4.83301 -74 -14.5s-39.667 -18.834 -53 -27.501v92c22 11.333 43.333 19.833 64 25.5s42 8.5 64 8.5c20.667 0 41.167 -2 61.5 -6
s39.833 -10.667 58.5 -20c40 -20 71.667 -49.5 95 -88.5s35 -82.5 35 -130.5c0 -31.333 -5.33301 -62.166 -16 -92.499s-26.667 -57.5 -48 -81.5s-47.833 -43.5 -79.5 -58.5s-68.167 -22.5 -109.5 -22.5c-38 0 -70.5 6 -97.5 18s-49.5 26 -67.5 42
c-22 19.333 -38.667 40 -50 62s-19.5 44.333 -24.5 67s-7.83301 45 -8.5 67s-1 42.667 -1 62v392h88v-416z" />
    <glyph glyph-name="c" unicode="c" horiz-adv-x="371" 
d="M349 396l-62.999 -0.00195312c-32 0 -59 -5 -81 -15s-39.5 -22.667 -52.5 -38s-22.333 -32.166 -28 -50.499s-8.5 -35.833 -8.5 -52.5c0 -20 3.5 -39.333 10.5 -58s17.667 -35.167 32 -49.5s32.333 -26 54 -35s47.167 -13.5 76.5 -13.5h60v-84h-63
c-44 0 -82.167 7 -114.5 21s-59.333 32.333 -81 55s-37.834 48.334 -48.501 77.001s-16 57.667 -16 87c0 16 1.66699 32.833 5 50.5s9 35.167 17 52.5s18.5 33.833 31.5 49.5s29.167 30.167 48.5 43.5c28.667 19.333 57 31.5 85 36.5s53.667 7.5 77 7.5h59v-84z" />
    <glyph glyph-name="d" unicode="d" horiz-adv-x="568" 
d="M542 700v-429.998c0 -41.333 -5.83301 -79.166 -17.5 -113.499s-28.334 -63.833 -50.001 -88.5s-47.834 -43.834 -78.501 -57.501s-65 -20.5 -103 -20.5c-41.333 0 -77.833 7.5 -109.5 22.5s-58.167 34.5 -79.5 58.5s-37.333 51.167 -48 81.5s-16 61.166 -16 92.499
c0 48.667 11.667 92.334 35 131.001s55 68 95 88c18.667 9.33301 38.334 16 59.001 20s41.334 6 62.001 6c15.333 0 34 -2.33301 56 -7s45.667 -13.667 71 -27v-92c-13.333 9.33301 -31 18.666 -53 27.999s-46 14 -72 14c-15.333 0 -30.833 -1.83301 -46.5 -5.5
s-30.167 -9.5 -43.5 -17.5c-19.333 -12 -36.333 -30 -51 -54s-22 -53.333 -22 -88c0 -24 4.16699 -46.333 12.5 -67s19.666 -38.334 33.999 -53.001s31.666 -26.167 51.999 -34.5s42.5 -12.5 66.5 -12.5c12.667 0 25 1.33301 37 4s23.667 7 35 13
c20.667 11.333 36.834 25.333 48.501 42s20.334 33.5 26.001 50.5s9.16699 33.333 10.5 49s2 28.167 2 37.5v430h88z" />
    <glyph glyph-name="e" unicode="e" horiz-adv-x="551" 
d="M183 158l-35.998 70l237 132c-18 19.333 -36.667 31.833 -56 37.5s-37.666 8.5 -54.999 8.5c-23.333 0 -44.666 -4.16699 -63.999 -12.5s-35.833 -20 -49.5 -35s-24.334 -32.5 -32.001 -52.5s-11.5 -42 -11.5 -66c0 -34.667 7 -64 21 -88s31 -42.333 51 -55
c25.333 -15.333 53.666 -23 84.999 -23c16 0 31.833 1.5 47.5 4.5s30.167 8.5 43.5 16.5c20 12 36.667 29.333 50 52s20.666 48.334 21.999 77.001l89 -11c-2.66699 -28.667 -8.66699 -53.834 -18 -75.501s-20.166 -40.167 -32.499 -55.5s-24.833 -27.833 -37.5 -37.5
s-23.667 -17.167 -33 -22.5c-19.333 -11.333 -40 -19.5 -62 -24.5s-44.333 -7.5 -67 -7.5c-38.667 0 -76 8.66699 -112 26c-40.667 20 -73.667 49.333 -99 88s-38 84 -38 136c0 35.333 6.33301 68.333 19 99s30.167 57.167 52.5 79.5s48.666 39.833 78.999 52.5
s63.166 19 98.499 19c23.333 0 46.333 -3 69 -9s44.167 -15.333 64.5 -28s38.833 -28.5 55.5 -47.5s31 -41.5 43 -67.5z" />
    <glyph glyph-name="f" unicode="f" horiz-adv-x="266" 
d="M40 0v489.996c0 12.667 0.166992 26.334 0.5 41.001s2 29.334 5 44.001s7.83301 29.167 14.5 43.5s16.334 27.5 29.001 39.5c10.667 10 22 17.833 34 23.5s24.167 9.83398 36.5 12.501s24.666 4.33398 36.999 5.00098s24.5 1 36.5 1h51v-84h-49
c-26 0 -46.167 -2.83301 -60.5 -8.5s-25 -13.5 -32 -23.5s-11.167 -21.5 -12.5 -34.5s-2 -26.5 -2 -40.5v-29h144v-84h-144v-396h-88z" />
    <glyph glyph-name="g" unicode="g" horiz-adv-x="572" 
d="M408 36c-21.333 -16 -42.1602 -27.6631 -62.4932 -34.9961s-43.166 -11 -68.499 -11c-28 0 -56.833 4.66699 -86.5 14s-56.667 23.833 -81 43.5s-44.333 45 -60 76s-23.5 68.5 -23.5 112.5c0 38 7 72.667 21 104s32.667 58.166 56 80.499s50.666 39.5 81.999 51.5
s64 18 98 18c11.333 0 25.5 -1 42.5 -3s34.667 -6.33301 53 -13s36.666 -16.667 54.999 -30s34.833 -31 49.5 -53s26.5 -49.333 35.5 -82s13.5 -72 13.5 -118v-144c0 -19.333 -0.833008 -38.333 -2.5 -57s-5 -36.834 -10 -54.501s-12.167 -34.834 -21.5 -51.501
s-21.666 -32.334 -36.999 -47.001c-8 -7.33301 -17.5 -14.833 -28.5 -22.5s-23.833 -14.667 -38.5 -21s-31.334 -11.5 -50.001 -15.5s-39.334 -6 -62.001 -6c-16.667 0 -37.834 1.83301 -63.501 5.5s-57.5 11.167 -95.5 22.5l21 80c26 -7.33301 49.667 -13.166 71 -17.499
s42 -6.5 62 -6.5c23.333 0 45.166 2.83301 65.499 8.5s38 15 53 28s26.833 30.333 35.5 52s13 48.834 13 81.501v165c0 13.333 -0.5 29.166 -1.5 47.499s-4.33301 37 -10 56s-14.834 37 -27.501 54s-30.334 31.167 -53.001 42.5c-21.333 10 -44.333 15 -69 15
c-23.333 0 -45 -4 -65 -12s-37.667 -19.5 -53 -34.5s-27.333 -33 -36 -54s-13 -44.167 -13 -69.5c0 -22.667 3.5 -43.834 10.5 -63.501s17 -36.834 30 -51.501s29 -26.167 48 -34.5s40.5 -12.5 64.5 -12.5c28.667 0 54.167 4.33301 76.5 13s43.166 22.334 62.499 41.001v-92
z" />
    <glyph glyph-name="h" unicode="h" horiz-adv-x="490" 
d="M40 0l-0.00195312 700.001h88v-263c21.333 21.333 42.666 35.5 63.999 42.5s42.333 10.5 63 10.5c17.333 0 34.5 -1.5 51.5 -4.5s33.167 -8.83301 48.5 -17.5c22 -12 39.333 -26.167 52 -42.5s22.167 -33.833 28.5 -52.5s10.333 -37.5 12 -56.5s2.5 -36.833 2.5 -53.5
v-263h-88v258c0 8 -0.666992 20.333 -2 37s-5.66602 33.167 -12.999 49.5s-18.666 30.666 -33.999 42.999s-36.666 18.5 -63.999 18.5c-34.667 0 -63.5 -13 -86.5 -39s-34.5 -66.667 -34.5 -122v-245h-88z" />
    <glyph glyph-name="i" unicode="i" horiz-adv-x="186" 
d="M49 0v480h88v-480h-88zM40 587c0 11.333 4 23 12 35s21.667 18 41 18s33 -6 41 -18s12 -23.667 12 -35s-4 -23 -12 -35s-21.667 -18 -41 -18s-33 6 -41 18s-12 23.667 -12 35z" />
    <glyph glyph-name="j" unicode="j" horiz-adv-x="205" 
d="M156 480l-0.000976562 -485c0 -18 -1 -39.333 -3 -64s-9 -48 -21 -70s-31.167 -40.667 -57.5 -56s-64.166 -23 -113.499 -23h-26v84h23c32 0 55.667 4 71 12s26 18.167 32 30.5s8.66699 26.333 8 42s-1 31.167 -1 46.5v483h88zM58.999 587c0 11.333 4 23 12 35
s21.667 18 41 18s33 -6 41 -18s12 -23.667 12 -35s-4 -23 -12 -35s-21.667 -18 -41 -18s-33 6 -41 18s-12 23.667 -12 35z" />
    <glyph glyph-name="k" unicode="k" horiz-adv-x="454" 
d="M40 0l0.000976562 699.998h88v-398h26c5.33301 0 11.666 0.166992 18.999 0.5s15 1.66602 23 3.99902s15.833 5.83301 23.5 10.5s14.167 11.667 19.5 21l83 142h100l-63 -108l-18 -31c-5.33301 -9.33301 -10.666 -17.666 -15.999 -24.999s-11.333 -13.833 -18 -19.5
s-14.334 -10.5 -23.001 -14.5c28.667 -4 50.5 -13 65.5 -27s25.833 -29.667 32.5 -47s10.334 -35.333 11.001 -54s1 -35 1 -49v-105h-88v104c0 30 -2.83301 52.833 -8.5 68.5s-13.334 26.834 -23.001 33.501s-21 10.334 -34 11.001s-26.833 1 -41.5 1h-71v-218h-88z" />
    <glyph glyph-name="l" unicode="l" horiz-adv-x="168" 
d="M40 0v700h88v-700h-88z" />
    <glyph glyph-name="m" unicode="m" horiz-adv-x="704" 
d="M40 0v278.003c0 18.667 0.666992 36.667 2 54s4.66602 33.833 9.99902 49.5s13.333 30.5 24 44.5s25.334 26.667 44.001 38c28.667 17.333 59.334 26 92.001 26c9.33301 0 18.666 -0.5 27.999 -1.5s18.666 -3.16699 27.999 -6.5c34.667 -10.667 62.667 -30.667 84 -60
c21.333 29.333 49.333 49.333 84 60c22.667 7.33301 47 9.83301 73 7.5s50.667 -10.5 74 -24.5c18.667 -11.333 33.5 -23.833 44.5 -37.5s19.167 -28.334 24.5 -44.001s8.66602 -32.334 9.99902 -50.001s2 -35.834 2 -54.501v-279h-88v285c0 10 -0.333008 20.167 -1 30.5
s-2.5 20.333 -5.5 30s-7.66699 18.834 -14 27.501s-14.833 16 -25.5 22c-13.333 8 -28.166 11.667 -44.499 11s-31.166 -4.66699 -44.499 -12c-12 -7.33301 -21.167 -15.833 -27.5 -25.5s-10.833 -20.167 -13.5 -31.5s-4 -23 -4 -35v-36v-266h-88v266v36
c0 12 -1.33301 23.667 -4 35s-7.16699 21.833 -13.5 31.5s-15.5 18.167 -27.5 25.5c-13.333 8 -28 12 -44 12c-17.333 0 -32.333 -3.66699 -45 -11c-11.333 -6.66699 -20 -14.334 -26 -23.001s-10.5 -17.834 -13.5 -27.501s-4.83301 -19.667 -5.5 -30s-1 -20.166 -1 -29.499
v-285h-88z" />
    <glyph glyph-name="n" unicode="n" horiz-adv-x="490" 
d="M362 257c0 10 -0.50293 21.167 -1.50293 33.5s-3.5 24.666 -7.5 36.999s-10.333 24.333 -19 36s-20.667 21.5 -36 29.5c-8 4.66699 -16.5 8 -25.5 10s-18.167 3 -27.5 3s-18.5 -1 -27.5 -3s-17.5 -5.33301 -25.5 -10c-15.333 -8 -27.333 -17.833 -36 -29.5
s-15 -23.667 -19 -36s-6.5 -24.666 -7.5 -36.999s-1.5 -23.5 -1.5 -33.5v-257h-88v257c0 16.667 1 34.334 3 53.001s6.33301 37 13 55s16.167 35.167 28.5 51.5s29.166 31.166 50.499 44.499c16.667 10 34.334 17.333 53.001 22s37.667 7 57 7s38.333 -2.33301 57 -7
s36.334 -12 53.001 -22c20.667 -13.333 37.334 -28.166 50.001 -44.499s22.334 -33.5 29.001 -51.5s11 -36.333 13 -55s3 -36.334 3 -53.001v-257h-88v257z" />
    <glyph glyph-name="o" unicode="o" horiz-adv-x="552" 
d="M276 406c-23.333 0 -44.833 -4 -64.5 -12s-36.5 -19.333 -50.5 -34s-25 -32.167 -33 -52.5s-12 -42.833 -12 -67.5s4 -47.167 12 -67.5s19 -37.833 33 -52.5s30.833 -26 50.5 -34s41.167 -12 64.5 -12c24 0 45.833 4.16699 65.5 12.5s36.5 19.833 50.5 34.5
s24.833 32.167 32.5 52.5s11.5 42.5 11.5 66.5s-3.83301 46.167 -11.5 66.5s-18.5 37.833 -32.5 52.5s-30.833 26.167 -50.5 34.5s-41.5 12.5 -65.5 12.5zM276 490c34.667 0 67.167 -6.5 97.5 -19.5s56.833 -30.833 79.5 -53.5s40.5 -49.167 53.5 -79.5
s19.5 -62.833 19.5 -97.5s-6.5 -67.167 -19.5 -97.5s-30.833 -56.833 -53.5 -79.5s-49.167 -40.5 -79.5 -53.5s-62.833 -19.5 -97.5 -19.5s-67.167 6.5 -97.5 19.5s-56.833 30.833 -79.5 53.5s-40.5 49.167 -53.5 79.5s-19.5 62.833 -19.5 97.5s6.5 67.167 19.5 97.5
s30.833 56.833 53.5 79.5s49.167 40.5 79.5 53.5s62.833 19.5 97.5 19.5z" />
    <glyph glyph-name="p" unicode="p" horiz-adv-x="572" 
d="M40 -218l-0.000976562 426.004c0 56 7.83301 102.167 23.5 138.5s35.834 65.166 60.501 86.499s51.834 36.166 81.501 44.499s58.167 12.5 85.5 12.5c33.333 0 65.333 -6 96 -18s57.834 -29.167 81.501 -51.5s42.5 -49.333 56.5 -81s21 -67.167 21 -106.5
c0 -38.667 -7 -73.167 -21 -103.5s-32.667 -55.833 -56 -76.5s-49.833 -36.334 -79.5 -47.001s-60.167 -16 -91.5 -16c-23.333 0 -47 3.83301 -71 11.5s-45 19.167 -63 34.5v92c21.333 -20.667 42.166 -34.834 62.499 -42.501s40.5 -11.5 60.5 -11.5
c25.333 0 48.333 4 69 12s38.5 19 53.5 33s26.5 30.833 34.5 50.5s12 41.5 12 65.5c0 26 -4.33301 49.5 -13 70.5s-20.5 39 -35.5 54s-32.333 26.5 -52 34.5s-40.834 12 -63.501 12c-18 0 -36.667 -2.83301 -56 -8.5s-37 -16 -53 -31s-29.167 -35.833 -39.5 -62.5
s-15.5 -61 -15.5 -103v-419h-88z" />
    <glyph glyph-name="q" unicode="q" horiz-adv-x="572" 
d="M458 195c0 16 -0.833008 33.502 -2.5 52.502s-5.5 37.5 -11.5 55.5s-15.167 34.833 -27.5 50.5s-29.5 28.5 -51.5 38.5c-22 9.33301 -44 14 -66 14c-24 0 -46.167 -4.16699 -66.5 -12.5s-38.166 -20 -53.499 -35s-27.333 -33 -36 -54s-13 -44.167 -13 -69.5
c0 -28.667 5 -53.167 15 -73.5s23 -37 39 -50s34.167 -22.5 54.5 -28.5s40.5 -9 60.5 -9s40.167 3.83301 60.5 11.5s41.166 21.834 62.499 42.501v-92c-2 -2 -6.33301 -5.5 -13 -10.5s-15.5 -10.167 -26.5 -15.5s-24 -10 -39 -14s-32.5 -6 -52.5 -6
c-32 0 -63.167 5.5 -93.5 16.5s-57.166 26.833 -80.499 47.5s-42 46 -56 76s-21 64.333 -21 103c0 55.333 13.167 102.666 39.5 141.999s58.833 68.666 97.5 87.999c19.333 9.33301 39.166 16.166 59.499 20.499s41.166 6.5 62.499 6.5c35.333 0 68.666 -6.33301 99.999 -19
c34.667 -14 61.834 -32.5 81.501 -55.5s34.334 -47.5 44.001 -73.5s15.667 -52.333 18 -79s3.5 -51 3.5 -73v-408h-88v413z" />
    <glyph glyph-name="r" unicode="r" horiz-adv-x="274" 
d="M40 480l84 -0.00195312v-55h2c9.33301 14.667 19.666 26.334 30.999 35.001s23 15.334 35 20.001s24 7.5 36 8.5s23 1.5 33 1.5h15v-84h-12c-7.33301 0 -18.666 -1 -33.999 -3s-30.5 -8.66699 -45.5 -20s-28.167 -29 -39.5 -53s-17 -58 -17 -102v-228h-88v480z" />
    <glyph glyph-name="s" unicode="s" horiz-adv-x="445" 
d="M26 84l230.002 -0.00195312h19.5c8.33301 0 16.5 1.16699 24.5 3.5s14.833 6.33301 20.5 12s8.5 13.834 8.5 24.501c0 17.333 -5.33301 29.5 -16 36.5s-23.334 13.167 -38.001 18.5c-23.333 8 -46.166 15 -68.499 21s-43.333 12.5 -63 19.5s-37.5 15.333 -53.5 25
s-29.333 21.5 -40 35.5c-16 21.333 -24 44.666 -24 69.999c0 13.333 1.66699 26.333 5 39s8.66602 24.334 15.999 35.001c10 13.333 21.167 23.666 33.5 30.999s25.333 12.833 39 16.5s27 6 40 7s25.167 1.5 36.5 1.5h201v-84h-226c-12 0 -21.667 -1.33301 -29 -4
s-12.833 -6 -16.5 -10s-6.16699 -8.16699 -7.5 -12.5s-2 -7.83301 -2 -10.5c0 -16 5.66699 -27.667 17 -35s23 -13 35 -17c21.333 -7.33301 43.166 -14 65.499 -20s43.666 -12.5 63.999 -19.5s38.833 -15.167 55.5 -24.5s30.334 -21 41.001 -35
c16.667 -22 25 -46.667 25 -74c0 -14 -1.66699 -27.667 -5 -41s-9 -25.666 -17 -36.999c-9.33301 -13.333 -19.833 -23.666 -31.5 -30.999s-23.5 -12.833 -35.5 -16.5s-24 -6 -36 -7s-23 -1.5 -33 -1.5h-235v84z" />
    <glyph glyph-name="t" unicode="t" horiz-adv-x="314" 
d="M300 396l-172 -0.000976562v-228c0 -12.667 0.166992 -24.167 0.5 -34.5s2.66602 -19.166 6.99902 -26.499s12 -13 23 -17s27.5 -6 49.5 -6h92v-84h-108c-10 0 -23.5 1 -40.5 3s-33.667 8 -50 18s-30.666 25.833 -42.999 47.5s-18.5 52.5 -18.5 92.5v439h88v-120h172v-84
z" />
    <glyph glyph-name="u" unicode="u" horiz-adv-x="490" 
d="M450 480l0.00292969 -257c0 -17.333 -1 -35.166 -3 -53.499s-6.33301 -36.5 -13 -54.5s-16.334 -35.333 -29.001 -52s-29.334 -31.334 -50.001 -44.001c-16.667 -10 -34.334 -17.333 -53.001 -22s-37.667 -7 -57 -7s-38.333 2.33301 -57 7s-36.334 12 -53.001 22
c-21.333 12.667 -38.166 27.334 -50.499 44.001s-21.833 34 -28.5 52s-11 36.167 -13 54.5s-3 36.166 -3 53.499v257h88v-257c0 -10 0.5 -21.167 1.5 -33.5s3.5 -24.666 7.5 -36.999s10.333 -24.333 19 -36s20.667 -21.5 36 -29.5c8 -4.66699 16.5 -8 25.5 -10
s18.167 -3 27.5 -3s18.5 1 27.5 3s17.5 5.33301 25.5 10c15.333 8 27.333 17.833 36 29.5s15 23.667 19 36s6.5 24.666 7.5 36.999s1.5 23.5 1.5 33.5v257h88z" />
    <glyph glyph-name="v" unicode="v" horiz-adv-x="444" 
d="M458 480l-165 -429c-2.66699 -7.33301 -5.5 -14.666 -8.5 -21.999s-7 -13.833 -12 -19.5s-11.5 -10.334 -19.5 -14.001s-18.333 -5.5 -31 -5.5s-23 1.83301 -31 5.5s-14.5 8.33398 -19.5 14.001s-9 12.167 -12 19.5s-5.83301 14.666 -8.5 21.999l-165 429h96l140 -370
l140 370h96z" />
    <glyph glyph-name="w" unicode="w" horiz-adv-x="704" 
d="M664 480l0.00390625 -283c0 -17.333 -0.5 -34.333 -1.5 -51s-4 -32.667 -9 -48s-12.833 -30 -23.5 -44s-25.667 -27 -45 -39c-15.333 -9.33301 -31.833 -15.833 -49.5 -19.5s-35.167 -5.5 -52.5 -5.5c-15.333 0 -31 2.66699 -47 8c-34.667 10.667 -62.667 30.667 -84 60
c-21.333 -29.333 -49.333 -49.333 -84 -60c-26.667 -8 -53 -10.167 -79 -6.5s-49 11.5 -69 23.5c-19.333 11.333 -34.333 24 -45 38s-18.5 28.667 -23.5 44s-8.16699 31.5 -9.5 48.5s-2 34.167 -2 51.5v283h88v-285c0 -19.333 1.66699 -38.666 5 -57.999
s14.666 -35.666 33.999 -48.999c14.667 -10 31.667 -14.667 51 -14s35.333 5 48 13c19.333 12.667 31.166 28.834 35.499 48.501s6.5 39.5 6.5 59.5v285h88v-285c0 -20 2.16699 -39.833 6.5 -59.5s16.166 -35.834 35.499 -48.501c13.333 -8.66699 29.333 -13 48 -13
c9.33301 0 18.333 1 27 3s16.667 5.66699 24 11c19.333 13.333 30.666 29.666 33.999 48.999s5 38.666 5 57.999v285h88z" />
    <glyph glyph-name="x" unicode="x" horiz-adv-x="388" 
d="M6 480l4 0.000976562c40 0 76 -10 108 -30s57.333 -47.333 76 -82c18.667 34.667 44.167 62 76.5 82s67.5 30 105.5 30h6v-84h-4c-14 0 -27.5 -2.5 -40.5 -7.5s-24.833 -11.5 -35.5 -19.5s-20.334 -17 -29.001 -27s-15.334 -20 -20.001 -30
c-5.33301 -11.333 -9.16602 -23 -11.499 -35s-3.5 -24.333 -3.5 -37s1.16699 -24.834 3.5 -36.501s6.16602 -23.167 11.499 -34.5c4.66699 -10 11.167 -20 19.5 -30s17.833 -19 28.5 -27s22.5 -14.667 35.5 -20s26.5 -8 40.5 -8h5v-84h-6c-38 0 -73.167 10 -105.5 30
s-57.833 47.333 -76.5 82c-18.667 -34.667 -44.167 -62 -76.5 -82s-67.5 -30 -105.5 -30h-6v84c21.333 1.33301 39.5 5.5 54.5 12.5s27.667 15 38 24s18.333 18 24 27s9.83398 16.167 12.501 21.5c5.33301 11.333 9.16602 23 11.499 35s3.5 24 3.5 36
c0 12.667 -1.16699 25 -3.5 37s-6.16602 23.667 -11.499 35c-4.66699 10 -11 20 -19 30s-17.333 19 -28 27s-22.667 14.5 -36 19.5s-27.666 7.5 -42.999 7.5h-3v84z" />
    <glyph glyph-name="y" unicode="y" horiz-adv-x="480" 
d="M128 480l0.00195312 -274c0 -7.33301 0.666992 -18.333 2 -33s5.66602 -29.334 12.999 -44.001s18.5 -27.5 33.5 -38.5s36.167 -16.5 63.5 -16.5s48.5 5.5 63.5 16.5s26.167 23.833 33.5 38.5s11.666 29.334 12.999 44.001s2 25.667 2 33v274h88v-277
c0 -14 -1.33301 -31.5 -4 -52.5s-9.16699 -42.167 -19.5 -63.5s-26 -41 -47 -59s-49.5 -30.667 -85.5 -38v-208h-88v208c-36 7.33301 -64.5 20 -85.5 38s-36.667 37.667 -47 59s-16.833 42.5 -19.5 63.5s-4 38.5 -4 52.5v277h88z" />
    <glyph glyph-name="z" unicode="z" horiz-adv-x="382" 
d="M364 0l-258.001 0.000976562c-6.66699 0 -15 0.333008 -25 1s-19.667 3 -29 7s-17.333 10.333 -24 19s-10 21 -10 37c0 14 4 28 12 42s20 30.667 36 50l196 240h-227v84h238c8 0 17 -0.333008 27 -1s19.5 -3 28.5 -7s16.667 -10.167 23 -18.5s9.5 -19.833 9.5 -34.5
s-3.66699 -28.834 -11 -42.501s-19.666 -31.167 -36.999 -52.5l-197 -240h248v-84z" />
    <glyph glyph-name="braceleft" unicode="{" horiz-adv-x="389" 
d="M33 292c26.667 2.66699 46.502 14.998 59.502 36.998s19.5 47.333 19.5 76v173c0 39.333 10.333 69.5 31 90.5s47.667 31.5 81 31.5h67v-46h-43c-5.33301 0 -10.833 -0.5 -16.5 -1.5s-10.834 -4 -15.501 -9s-8.5 -12.833 -11.5 -23.5s-4.5 -26 -4.5 -46v-186
c0 -10 -0.833008 -20.667 -2.5 -32s-5.33398 -22.666 -11.001 -33.999s-13.667 -22.166 -24 -32.499s-24.166 -19.5 -41.499 -27.5c22.667 -6.66699 41.5 -20.667 56.5 -42s22.5 -49.666 22.5 -84.999v-185c0 -20 1.66699 -35.333 5 -46s7.33301 -18.5 12 -23.5
s9.66699 -8 15 -9s9.66602 -1.5 12.999 -1.5h46v-46h-79c-14.667 0 -28.167 3.33301 -40.5 10s-22.833 15.5 -31.5 26.5s-15.5 24 -20.5 39s-7.5 30.5 -7.5 46.5v174c0 26.667 -6.5 51.167 -19.5 73.5s-32.833 35.166 -59.5 38.499v60z" />
    <glyph glyph-name="bar" unicode="|" horiz-adv-x="222" 
d="M72 700h78v-700h-78v700z" />
    <glyph glyph-name="braceright" unicode="}" horiz-adv-x="389" 
d="M291 232c-13.333 -1.33301 -25.001 -5.3291 -35.001 -11.9961s-18.167 -15 -24.5 -25s-11.166 -21.333 -14.499 -34s-5 -25.334 -5 -38.001v-177c0 -16 -2.5 -31.5 -7.5 -46.5s-11.833 -28 -20.5 -39s-19.167 -19.833 -31.5 -26.5s-25.833 -10 -40.5 -10h-79v46h46
c3.33301 0 7.66602 0.5 12.999 1.5s10.333 4 15 9s8.66699 12.833 12 23.5s5 26 5 46v181c0 11.333 0.833008 23.166 2.5 35.499s5.16699 24.166 10.5 35.499s13.333 22.166 24 32.499s24.667 19.5 42 27.5c-20 6 -35.333 15.5 -46 28.5s-18.5 26.5 -23.5 40.5
s-7.83301 27.167 -8.5 39.5s-1 21.166 -1 26.499v177c0 20 -1.66699 35.333 -5 46s-7.33301 18.5 -12 23.5s-9.66699 8 -15 9s-9.66602 1.5 -12.999 1.5h-46v46h79c14.667 0 28.167 -3.33301 40.5 -10s22.833 -15.5 31.5 -26.5s15.5 -24 20.5 -39s7.5 -30.5 7.5 -46.5v-174
c0 -26.667 6.5 -51.167 19.5 -73.5s32.833 -35.166 59.5 -38.499v-60z" />
    <glyph glyph-name="asciitilde" unicode="~" horiz-adv-x="600" 
d="M531 254c-17.333 -28 -36.001 -49.3291 -56.001 -63.9961s-43.333 -22 -70 -22c-18 0 -34.833 3.16699 -50.5 9.5s-31.834 13.833 -48.501 22.5c-15.333 8 -32.833 16 -52.5 24s-39.834 12 -60.501 12c-18 0 -34.5 -5.33301 -49.5 -16s-27.833 -29.334 -38.5 -56.001
l-36 62c4.66699 10 10.834 20.167 18.501 30.5s16.5 19.666 26.5 27.999s21.667 15 35 20s28.333 7.5 45 7.5c20.667 0 41 -3.83301 61 -11.5s41.667 -16.834 65 -27.501c19.333 -8.66699 35.666 -15.667 48.999 -21s25.333 -8 36 -8s20.834 2.5 30.501 7.5
s18.334 11.167 26.001 18.5s14.334 15.166 20.001 23.499s10.167 15.833 13.5 22.5z" />
    <glyph glyph-name="uni00A0" unicode="&#xa0;" horiz-adv-x="0" 
 />
    <glyph glyph-name="currency" unicode="&#xa4;" horiz-adv-x="583" 
d="M38 145l55 58c-19.333 24 -32.5 48.667 -39.5 74s-10.5 49.666 -10.5 72.999s3.5 47.666 10.5 72.999s20.167 50 39.5 74l-55 58l48 48l55 -58c28 24 55.5 38.833 82.5 44.5s49.5 8.5 67.5 8.5s40.5 -2.83301 67.5 -8.5s54.5 -20.5 82.5 -44.5l55 58l48 -48l-55 -58
c19.333 -24 32.5 -48.667 39.5 -74s10.5 -49.666 10.5 -72.999s-3.5 -47.666 -10.5 -72.999s-20.167 -50 -39.5 -74l55 -58l-48 -48l-55 58c-28 -24 -55.5 -38.833 -82.5 -44.5s-49.5 -8.5 -67.5 -8.5s-40.5 2.83301 -67.5 8.5s-54.5 20.5 -82.5 44.5l-55 -58zM125 350
c0 -24 4.33301 -46.333 13 -67s20.5 -38.834 35.5 -54.501s32.5 -28 52.5 -37s41.667 -13.5 65 -13.5s45 4.5 65 13.5s37.5 21.333 52.5 37s26.833 33.834 35.5 54.501s13 43 13 67s-4.33301 46.333 -13 67s-20.5 38.834 -35.5 54.501s-32.5 28 -52.5 37
s-41.667 13.5 -65 13.5s-45 -4.5 -65 -13.5s-37.5 -21.333 -52.5 -37s-26.833 -33.834 -35.5 -54.501s-13 -43 -13 -67z" />
    <glyph glyph-name="brokenbar" unicode="&#xa6;" horiz-adv-x="222" 
d="M72 700h78v-262h-78v262zM72 262h78v-262h-78v262z" />
    <glyph glyph-name="section" unicode="&#xa7;" horiz-adv-x="503" 
d="M426 628l-185 -0.00390625c-4 0 -9 -0.166992 -15 -0.5s-12 -1.66602 -18 -3.99902s-11.167 -6 -15.5 -11s-6.5 -12.167 -6.5 -21.5c0 -11.333 3.5 -21.333 10.5 -30s16 -16.834 27 -24.501s23.667 -15 38 -22s28.5 -14.5 42.5 -22.5
c20 -11.333 38.5 -23.166 55.5 -35.499s31.667 -25.833 44 -40.5s22 -30.834 29 -48.501s10.5 -37.167 10.5 -58.5c0 -30.667 -8.33301 -57.5 -25 -80.5s-41 -37.167 -73 -42.5c24.667 -13.333 43.667 -30.666 57 -51.999s20 -43.666 20 -66.999
c0 -12 -2.16699 -25.167 -6.5 -39.5s-12.166 -27.5 -23.499 -39.5s-27.333 -22.167 -48 -30.5s-47.334 -12.5 -80.001 -12.5h-204v84h199h19.5c8.33301 0 16.5 1.16699 24.5 3.5s14.833 6.33301 20.5 12s8.5 13.834 8.5 24.501c0 12 -3.5 22.333 -10.5 31s-16 16.667 -27 24
s-23.5 14.333 -37.5 21s-28.333 14 -43 22c-15.333 8.66699 -31.333 18.5 -48 29.5s-31.834 23.833 -45.501 38.5s-25 31 -34 49s-13.5 38.333 -13.5 61c0 34 10.5 62 31.5 84s47.833 33.333 80.5 34c-30 17.333 -52.333 36 -67 56s-22 44.333 -22 73
c0 14.667 2.66699 29.334 8 44.001s14.333 27.5 27 38.5s28.834 20 48.501 27s44.167 10.5 73.5 10.5h173v-84zM256 416.996c-11.333 3.33301 -21.334 5 -30.001 5c-21.333 0 -38.333 -6.66699 -51 -20s-19 -30.333 -19 -51c0 -15.333 4.83301 -30.166 14.5 -44.499
s21.334 -27 35.001 -38s28 -19.667 43 -26s28.167 -9.5 39.5 -9.5c8 0 16.167 1.33301 24.5 4s15.833 6.83398 22.5 12.501s12.167 13 16.5 22s6.5 19.5 6.5 31.5c0 13.333 -3.16699 26.166 -9.5 38.499s-14.5 23.5 -24.5 33.5s-21 18.667 -33 26s-23.667 12.666 -35 15.999
z" />
    <glyph glyph-name="copyright" unicode="&#xa9;" horiz-adv-x="761" 
d="M32 350c0 52.667 9.5 101.167 28.5 145.5s44.5 82.5 76.5 114.5s69.5 57 112.5 75s88.5 27 136.5 27s93.5 -9 136.5 -27s80.5 -43 112.5 -75s57.5 -70.167 76.5 -114.5s28.5 -92.833 28.5 -145.5s-9.5 -101.167 -28.5 -145.5s-44.5 -82.5 -76.5 -114.5
s-69.5 -57 -112.5 -75s-88.5 -27 -136.5 -27s-93.5 9 -136.5 27s-80.5 43 -112.5 75s-57.5 70.167 -76.5 114.5s-28.5 92.833 -28.5 145.5zM102 350c0 -40.667 6.83301 -79 20.5 -115s33 -67.5 58 -94.5s55 -48.5 90 -64.5s73.5 -24 115.5 -24s80.333 8 115 24
s64.5 37.5 89.5 64.5s44.5 58.5 58.5 94.5s21 74.333 21 115c0 40 -6.83301 78 -20.5 114s-33 67.667 -58 95s-55 49 -90 65s-73.5 24 -115.5 24s-80.5 -8 -115.5 -24s-65 -37.667 -90 -65s-44.333 -59 -58 -95s-20.5 -74 -20.5 -114zM479 473l-43.9961 -0.000976562
c-18.667 0 -37.334 -1.33301 -56.001 -4s-36.667 -10.667 -54 -24c-15.333 -11.333 -27.5 -26.5 -36.5 -45.5s-13.5 -39.833 -13.5 -62.5c0 -17.333 3.16699 -34.166 9.5 -50.499s15.666 -31 27.999 -44s27.833 -23.333 46.5 -31s40.667 -11.5 66 -11.5h54v-74h-56
c-38.667 0 -72.334 6.16699 -101.001 18.5s-52.5 28.333 -71.5 48s-33.167 42.167 -42.5 67.5s-14 51 -14 77c0 34 7.66699 66.5 23 97.5s37.666 56.167 66.999 75.5c25.333 17.333 50.333 27.833 75 31.5s50 5.5 76 5.5h44v-74z" />
    <glyph glyph-name="guillemotleft" unicode="&#xab;" horiz-adv-x="495" 
d="M265 86h-76l-125 154l125 154h76l-125 -154zM435 86h-76l-125 154l125 154h76l-125 -154z" />
    <glyph glyph-name="logicalnot" unicode="&#xac;" horiz-adv-x="600" 
d="M462 300h-402v78h480v-276h-78v198z" />
    <glyph glyph-name="registered" unicode="&#xae;" horiz-adv-x="786" 
d="M32 350c0 52.667 9.5 101.167 28.5 145.5s44.5 82.5 76.5 114.5s69.5 57 112.5 75s88.5 27 136.5 27s93.5 -9 136.5 -27s80.5 -43 112.5 -75s57.5 -70.167 76.5 -114.5s28.5 -92.833 28.5 -145.5s-9.5 -101.167 -28.5 -145.5s-44.5 -82.5 -76.5 -114.5
s-69.5 -57 -112.5 -75s-88.5 -27 -136.5 -27s-93.5 9 -136.5 27s-80.5 43 -112.5 75s-57.5 70.167 -76.5 114.5s-28.5 92.833 -28.5 145.5zM102 350c0 -40.667 6.83301 -79 20.5 -115s33 -67.5 58 -94.5s55 -48.5 90 -64.5s73.5 -24 115.5 -24s80.333 8 115 24
s64.5 37.5 89.5 64.5s44.5 58.5 58.5 94.5s21 74.333 21 115c0 40 -6.83301 78 -20.5 114s-33 67.667 -58 95s-55 49 -90 65s-73.5 24 -115.5 24s-80.5 -8 -115.5 -24s-65 -37.667 -90 -65s-44.333 -59 -58 -95s-20.5 -74 -20.5 -114zM245 147l-0.000976562 263.003
c0 12 0.5 24.333 1.5 37s3.5 25.167 7.5 37.5s10.167 24.166 18.5 35.499s20.166 21.333 35.499 30c10.667 6.66699 22 11.334 34 14.001s24.333 4 37 4c14.667 0 29 -1.66699 43 -5s26.667 -9 38 -17c12.667 -8.66699 24.167 -21.334 34.5 -38.001s15.5 -37.667 15.5 -63
c0 -18.667 -4.16699 -35.334 -12.5 -50.001s-20.166 -27 -35.499 -37c15.333 -5.33301 26.833 -12.833 34.5 -22.5s13 -20 16 -31s4.5 -22.333 4.5 -34v-30.5v-93h-56v107c0 16.667 -2.33301 30 -7 40s-10.667 17.5 -18 22.5s-15.5 8.16699 -24.5 9.5s-17.5 2 -25.5 2h-64
v52h47c16 0 29.5 2 40.5 6s19.833 9.33301 26.5 16s11.334 14.167 14.001 22.5s4 16.5 4 24.5c0 19.333 -6.83301 35.333 -20.5 48s-32.167 19 -55.5 19c-18.667 0 -33.167 -4 -43.5 -12s-18 -17.5 -23 -28.5s-8 -21.833 -9 -32.5s-1.5 -18.334 -1.5 -23.001v-273h-56z" />
    <glyph glyph-name="degree" unicode="&#xb0;" horiz-adv-x="352" 
d="M176 662c-11.333 0 -22.833 -2 -34.5 -6s-22 -10 -31 -18s-16.333 -18.333 -22 -31s-8.5 -27.667 -8.5 -45s2.83301 -32.333 8.5 -45s13 -23 22 -31s19.333 -14 31 -18s23.167 -6 34.5 -6s22.833 2 34.5 6s22 10 31 18s16.333 18.333 22 31s8.5 27.667 8.5 45
s-2.83301 32.333 -8.5 45s-13 23 -22 31s-19.333 14 -31 18s-23.167 6 -34.5 6zM176 712c20.667 0 40.167 -4 58.5 -12s34.166 -18.667 47.499 -32s24 -29.166 32 -47.499s12 -37.833 12 -58.5s-4 -40.167 -12 -58.5s-18.667 -34.166 -32 -47.499s-29.166 -24 -47.499 -32
s-37.833 -12 -58.5 -12s-40.167 4 -58.5 12s-34.166 18.667 -47.499 32s-24 29.166 -32 47.499s-12 37.833 -12 58.5s4 40.167 12 58.5s18.667 34.166 32 47.499s29.166 24 47.499 32s37.833 12 58.5 12z" />
    <glyph glyph-name="plusminus" unicode="&#xb1;" horiz-adv-x="580" 
d="M251 480h78v-145h201v-78h-201v-145h-78v145h-201v78h201v145zM50 78h480v-78h-480v78z" />
    <glyph glyph-name="mu" unicode="&#xb5;" horiz-adv-x="476" 
d="M436 0l-88.0039 0.000976562v62c-14 -25.333 -32.333 -43.666 -55 -54.999s-44.667 -17 -66 -17s-41.166 4.66699 -59.499 14s-34.166 22.666 -47.499 39.999v-216h-88v652h88v-280c0 -8.66699 0.666992 -18 2 -28s4 -20 8 -30s9.66699 -19.5 17 -28.5
s17 -17.167 29 -24.5c16.667 -10 35.334 -15 56.001 -15s39.667 5 57 15c14.667 8 26 17.667 34 29s13.833 23 17.5 35s5.83398 23.667 6.50098 35s1 21.666 1 30.999v261h88v-480z" />
    <glyph glyph-name="paragraph" unicode="&#xb6;" horiz-adv-x="586" 
d="M544 -191l-94 -0.000976562v803h-97v-803h-94v537h-15c-51.333 0 -91.833 6.83301 -121.5 20.5s-52.334 29.834 -68.001 48.501s-25.667 38 -30 58s-6.5 36.333 -6.5 49c0 40 7.83301 71.833 23.5 95.5s35.334 41.5 59.001 53.5s49.5 19.833 77.5 23.5s54.333 5.5 79 5.5
h287v-891z" />
    <glyph glyph-name="periodcentered" unicode="&#xb7;" horiz-adv-x="230" 
d="M56 240c0 16 5.83301 29.833 17.5 41.5s25.5 17.5 41.5 17.5s29.833 -5.83301 41.5 -17.5s17.5 -25.5 17.5 -41.5s-5.83301 -29.833 -17.5 -41.5s-25.5 -17.5 -41.5 -17.5s-29.833 5.83301 -41.5 17.5s-17.5 25.5 -17.5 41.5z" />
    <glyph glyph-name="guillemotright" unicode="&#xbb;" horiz-adv-x="495" 
d="M60 394h76l125 -154l-125 -154h-76l125 154zM230 394h76l125 -154l-125 -154h-76l125 154z" />
    <glyph glyph-name="afii10023" unicode="&#x401;" horiz-adv-x="493" 
d="M457 612l-166.001 -0.00488281h-29c-10 0 -20.167 -0.666992 -30.5 -2s-20.333 -4.16602 -30 -8.49902s-18.5 -10.5 -26.5 -18.5c-6 -6 -11.333 -14.167 -16 -24.5s-7 -23.166 -7 -38.499c0 -16 3.33301 -30.667 10 -44c7.33301 -15.333 16.5 -27.166 27.5 -35.499
s22.5 -14.333 34.5 -18s24.167 -5.66699 36.5 -6s23.833 -0.5 34.5 -0.5h162v-88h-153c-22.667 0 -45.667 -1.16699 -69 -3.5s-44.666 -11.166 -63.999 -26.499c-11.333 -9.33301 -21 -21.666 -29 -36.999s-12 -33.666 -12 -54.999c0 -20 4.33301 -38.333 13 -55
c8 -15.333 17.5 -27.166 28.5 -35.499s22.833 -14.5 35.5 -18.5s25.667 -6.5 39 -7.5s26.333 -1.5 39 -1.5h172v-88h-183c-18 0 -35.5 0.666992 -52.5 2s-33.5 4.5 -49.5 9.5s-31.5 12 -46.5 21s-29.5 21.5 -43.5 37.5c-17.333 19.333 -29.333 39.833 -36 61.5
s-10 44.167 -10 67.5c0 32 4.83301 58.667 14.5 80s20.667 38.666 33 51.999s24.5 23.333 36.5 30s20.667 11 26 13c-27.333 16.667 -48.833 38.5 -64.5 65.5s-23.5 58.167 -23.5 93.5c0 23.333 3.66699 44.666 11 63.999s19.333 37 36 53c14 12.667 28.333 22.5 43 29.5
s30 12 46 15s32.667 4.66699 50 5s35 0.5 53 0.5h160v-88zM154.999 800.995c0 16 5.33301 29.333 16 40s24 16 40 16s29.333 -5.33301 40 -16s16 -24 16 -40s-5.33301 -29.333 -16 -40s-24 -16 -40 -16s-29.333 5.33301 -40 16s-16 24 -16 40zM316.999 800.995
c0 16 5.33301 29.333 16 40s24 16 40 16s29.333 -5.33301 40 -16s16 -24 16 -40s-5.33301 -29.333 -16 -40s-24 -16 -40 -16s-29.333 5.33301 -40 16s-16 24 -16 40z" />
    <glyph glyph-name="afii10051" unicode="&#x402;" horiz-adv-x="685" 
d="M525 622l-269.999 0.000976562v-170c4 6 9.83301 13.333 17.5 22s18 17.334 31 26.001s29.167 16 48.5 22s42.666 9 69.999 9c34 0 62.667 -4.83301 86 -14.5s42.5 -21.834 57.5 -36.501s26.667 -30.834 35 -48.501s14.5 -34.667 18.5 -51s6.33301 -30.833 7 -43.5
s1 -21.334 1 -26.001v-86c0 -7.33301 -0.5 -18 -1.5 -32s-3.66699 -29.333 -8 -46s-11.333 -33.667 -21 -51s-23.167 -33.166 -40.5 -47.499s-39.333 -26 -66 -35s-59.334 -13.5 -98.001 -13.5h-41v88h36c4 0 13.833 0.666992 29.5 2s32.167 5.66602 49.5 12.999
s32.833 19.333 46.5 36s20.5 40 20.5 70v103c0 42 -12.5 74.333 -37.5 97s-55.5 34 -91.5 34c-23.333 0 -44.166 -4.16699 -62.499 -12.5s-33.833 -19.666 -46.5 -33.999s-22.5 -31.5 -29.5 -51.5s-10.5 -42 -10.5 -66v-279h-94v622h-159v78h523v-78z" />
    <glyph glyph-name="afii10052" unicode="&#x403;" horiz-adv-x="488" 
d="M445 612l-138 -0.000976562h-32.5c-11 0 -21.833 -1 -32.5 -3s-21 -5.16699 -31 -9.5s-19 -10.833 -27 -19.5s-14.167 -18.167 -18.5 -28.5s-7.5 -21 -9.5 -32s-3.16699 -21.667 -3.5 -32s-0.5 -19.5 -0.5 -27.5v-460h-94v462c0 16 0.5 32.667 1.5 50
s3.33301 34.5 7 51.5s9.5 33.333 17.5 49s19 29.834 33 42.501c13.333 12 27.833 21 43.5 27s31.834 10.333 48.501 13s33.167 4.16699 49.5 4.5s32.166 0.5 47.499 0.5h139v-88zM374 900.999h108l-130 -142h-68z" />
    <glyph glyph-name="afii10053" unicode="&#x404;" horiz-adv-x="508" 
d="M472 318h-338.001c3.33301 -32.667 12 -63 26 -91s32.333 -52.333 55 -73s49.334 -36.834 80.001 -48.501s64.667 -17.5 102 -17.5h75v-88h-70c-60.667 0 -113.834 10.5 -159.501 31.5s-83.834 48.167 -114.501 81.5s-53.667 70.833 -69 112.5s-23 83.167 -23 124.5
s7.66699 82.833 23 124.5s38.333 79.167 69 112.5s69 60.5 115 81.5s99.667 31.5 161 31.5h68v-88h-59c-36 0 -69.833 -4.83301 -101.5 -14.5s-59.667 -23.5 -84 -41.5s-44.666 -39.667 -60.999 -65s-27.166 -53.666 -32.499 -84.999h338v-88z" />
    <glyph glyph-name="afii10054" unicode="&#x405;" horiz-adv-x="503" 
d="M26 88l229.006 -0.00195312c12 0 25.333 0.833008 40 2.5s28.5 5.33398 41.5 11.001s24 14 33 25s13.5 26.167 13.5 45.5c0 18.667 -3.83301 34.834 -11.5 48.501s-18.334 25.834 -32.001 36.501s-29.667 20.667 -48 30s-38.5 19 -60.5 29l-45.5 21.5
c-15.667 7.66699 -30.834 16 -45.501 25s-28.5 18.667 -41.5 29s-24.167 21.833 -33.5 34.5c-10.667 14.667 -19 30.667 -25 48s-9 35.333 -9 54c0 17.333 2.16699 34.166 6.5 50.499s11.166 31.5 20.499 45.5c12 18 25.5 32 40.5 42s30.5 17.5 46.5 22.5
s31.833 8.16699 47.5 9.5s30.167 2 43.5 2h210v-88h-216c-18.667 0 -36.334 -1.5 -53.001 -4.5s-30.667 -13.833 -42 -32.5c-6.66699 -10.667 -10 -23 -10 -37c0 -20.667 5.33301 -38.334 16 -53.001c8 -11.333 21 -22.833 39 -34.5s47 -26.834 87 -45.501l47.5 -23
c16.333 -8 32.166 -16.5 47.499 -25.5s29.666 -19 42.999 -30s25 -22.833 35 -35.5c11.333 -15.333 20.333 -32.666 27 -51.999s10 -38.666 10 -57.999c0 -17.333 -2 -34 -6 -50s-10.667 -31.333 -20 -46c-12 -19.333 -25.333 -34.666 -40 -45.999s-30 -19.833 -46 -25.5
s-32.667 -9.33398 -50 -11.001s-34.333 -2.5 -51 -2.5h-238v88z" />
    <glyph glyph-name="afii10055" unicode="&#x406;" horiz-adv-x="210" 
d="M58 0v700h94v-700h-94z" />
    <glyph glyph-name="afii10056" unicode="&#x407;" horiz-adv-x="217" 
d="M65 0v700h94v-700h-94zM-24 821c0 16 5.33301 29.333 16 40s24 16 40 16s29.333 -5.33301 40 -16s16 -24 16 -40s-5.33301 -29.333 -16 -40s-24 -16 -40 -16s-29.333 5.33301 -40 16s-16 24 -16 40zM136 821c0 16 5.33301 29.333 16 40s24 16 40 16
s29.333 -5.33301 40 -16s16 -24 16 -40s-5.33301 -29.333 -16 -40s-24 -16 -40 -16s-29.333 5.33301 -40 16s-16 24 -16 40z" />
    <glyph glyph-name="afii10057" unicode="&#x408;" horiz-adv-x="347" 
d="M289 700l0.00195312 -473.995c0 -6.66699 -0.5 -16.834 -1.5 -30.501s-3.83301 -28.834 -8.5 -45.501s-11.667 -33.834 -21 -51.501s-22.833 -33.834 -40.5 -48.501s-39.834 -26.667 -66.501 -36s-59.334 -14 -98.001 -14h-55v88h51c34.667 0 61.667 5 81 15
s33.833 22.333 43.5 37s15.667 30.167 18 46.5s3.5 31.166 3.5 44.499v469h94z" />
    <glyph glyph-name="afii10058" unicode="&#x409;" horiz-adv-x="983" 
d="M546 247c0 -12 0.50293 -25.667 1.50293 -41s4.5 -30.5 10.5 -45.5s15.167 -29.167 27.5 -42.5s29.5 -23.666 51.5 -30.999c18 -6 36.667 -9 56 -9c13.333 0 26.666 1.33301 39.999 4s26.333 7 39 13c9.33301 4.66699 18.833 10.667 28.5 18s18.334 16.5 26.001 27.5
s14 24.167 19 39.5s7.5 33.333 7.5 54c0 46.667 -14 84.167 -42 112.5s-65 42.5 -111 42.5c-22.667 0 -42.667 -2.83301 -60 -8.5s-36.666 -13.5 -57.999 -23.5v96l33 12c9.33301 3.33301 18.5 6 27.5 8s18.333 3.5 28 4.5s20.5 1.5 32.5 1.5
c41.333 0 77.333 -6.83301 108 -20.5s56 -31.667 76 -54s35 -47.833 45 -76.5s15 -58 15 -88c0 -52.667 -13.333 -99.834 -40 -141.501s-64 -71.834 -112 -90.501c-16.667 -6.66699 -33.834 -11.334 -51.501 -14.001s-35.5 -4 -53.5 -4
c-15.333 0 -30.666 0.833008 -45.999 2.5s-30.333 5.16699 -45 10.5c-34.667 12 -61.834 28.5 -81.501 49.5s-34.334 43.333 -44.001 67s-15.667 46.834 -18 69.501s-3.5 41.334 -3.5 56.001v367h-46c-13.333 0 -28.333 -0.5 -45 -1.5s-34 -3.83301 -52 -8.5
s-35.667 -12 -53 -22s-33.333 -24 -48 -42c-21.333 -26.667 -34.5 -56 -39.5 -88s-7.5 -62.667 -7.5 -92v-358h-171v88h77v270c0 22 0.833008 43.667 2.5 65s5.16699 42.166 10.5 62.499s13 40.333 23 60s23 38.5 39 56.5c20 22.667 41.167 40.5 63.5 53.5
s44.666 22.833 66.999 29.5s44.666 10.834 66.999 12.501s43.5 2.5 63.5 2.5h143v-453z" />
    <glyph glyph-name="afii10059" unicode="&#x40a;" horiz-adv-x="987" 
d="M58 0l0.000976562 700h94v-294h304v294h94v-453c0 -12 0.5 -25.667 1.5 -41s4.5 -30.5 10.5 -45.5s15.167 -29.167 27.5 -42.5s29.5 -23.666 51.5 -30.999c18 -6 36.667 -9 56 -9c13.333 0 26.666 1.33301 39.999 4s26.333 7 39 13
c9.33301 4.66699 18.833 10.667 28.5 18s18.334 16.5 26.001 27.5s14 24.167 19 39.5s7.5 33.333 7.5 54c0 46.667 -14 84.167 -42 112.5s-65 42.5 -111 42.5c-22.667 0 -42.667 -2.83301 -60 -8.5s-36.666 -13.5 -57.999 -23.5v96l33 12c9.33301 3.33301 18.5 6 27.5 8
s18.333 3.5 28 4.5s20.5 1.5 32.5 1.5c41.333 0 77.333 -6.83301 108 -20.5s56 -31.667 76 -54s35 -47.833 45 -76.5s15 -58 15 -88c0 -52.667 -13.333 -99.834 -40 -141.501s-64 -71.834 -112 -90.501c-16.667 -6.66699 -33.834 -11.334 -51.501 -14.001s-35.5 -4 -53.5 -4
c-15.333 0 -30.666 0.833008 -45.999 2.5s-30.333 5.16699 -45 10.5c-34.667 12 -61.834 28.5 -81.501 49.5s-34.334 43.333 -44.001 67s-15.667 46.834 -18 69.501s-3.5 41.334 -3.5 56.001v73h-304v-318h-94z" />
    <glyph glyph-name="afii10060" unicode="&#x40b;" horiz-adv-x="667" 
d="M2 700l523.005 0.00195312v-78h-270v-170c11.333 18 24.5 32.167 39.5 42.5s30 18.333 45 24s29.333 9.16699 43 10.5s24.834 2 33.501 2c30.667 0 59 -5 85 -15s48.333 -24.333 67 -43s33.167 -41.834 43.5 -69.501s15.5 -58.834 15.5 -93.501v-310h-94v296
c0 22.667 -3.83301 43 -11.5 61s-17.834 33.333 -30.501 46s-27.334 22.5 -44.001 29.5s-34.334 10.5 -53.001 10.5s-36.334 -3.5 -53.001 -10.5s-31.334 -16.833 -44.001 -29.5s-22.834 -28 -30.501 -46s-11.5 -38.333 -11.5 -61v-296h-94v622h-159v78z" />
    <glyph glyph-name="afii10061" unicode="&#x40c;" horiz-adv-x="576" 
d="M58 0l-0.000976562 699.999h94v-294h63c12.667 0 25 1.16699 37 3.5s23.333 7 34 14s21 16.667 31 29s19.667 28.833 29 49.5l89 198h105l-78 -171l-24.5 -51.5c-7 -14.333 -14 -26.833 -21 -37.5s-14.5 -20.167 -22.5 -28.5s-17.333 -16.166 -28 -23.499
c14.667 -3.33301 30.167 -8.66602 46.5 -15.999s31.5 -18.833 45.5 -34.5s25.5 -36.334 34.5 -62.001s13.5 -57.834 13.5 -96.501v-179h-94v180c0 11.333 -0.833008 24.833 -2.5 40.5s-6.5 30.834 -14.5 45.501s-20.167 27 -36.5 37s-39.166 15 -68.499 15h-138v-318h-94z
M341.999 900.999h108l-130 -142h-68z" />
    <glyph glyph-name="afii10062" unicode="&#x40e;" horiz-adv-x="605" 
d="M152 699v-217.997c0 -8.66699 0.5 -17.834 1.5 -27.501s3 -19.334 6 -29.001s7.5 -18.834 13.5 -27.501s14.333 -16.667 25 -24c15.333 -10.667 33 -17.334 53 -20.001s41.667 -4 65 -4h101v-88h-99c-12 0 -25 0.166992 -39 0.5s-28.5 1.5 -43.5 3.5
s-29.833 5.16699 -44.5 9.5s-28.667 10.5 -42 18.5c-22 12.667 -39 27.834 -51 45.501s-21 36 -27 55s-9.66699 37.667 -11 56s-2 34.5 -2 48.5v201h94zM271 88.0029c23.333 0 47 1.16992 71 3.50293s44.667 9.16602 62 20.499c12 8 21.333 17 28 27s11.5 20.5 14.5 31.5
s4.83301 21.667 5.5 32s1 20.166 1 29.499v467h94v-442c0 -19.333 -0.5 -38.5 -1.5 -57.5s-4 -37.667 -9 -56s-13 -35.833 -24 -52.5s-26.5 -32.334 -46.5 -47.001c-30 -21.333 -61.5 -34 -94.5 -38s-66.5 -6 -100.5 -6h-171v88h171zM197 899.006
c0.666992 -6 2.5 -13.5 5.5 -22.5s8.33301 -17.5 16 -25.5s18 -14.833 31 -20.5s30.167 -8.5 51.5 -8.5c20.667 0 37.667 2.83301 51 8.5s23.833 12.5 31.5 20.5s13 16.5 16 25.5s4.83301 16.5 5.5 22.5h50c0 -16.667 -2.83301 -33.167 -8.5 -49.5
s-14.667 -30.833 -27 -43.5s-28.333 -22.834 -48 -30.501s-43.167 -11.5 -70.5 -11.5s-50.833 3.83301 -70.5 11.5s-35.667 17.834 -48 30.501s-21.333 27.167 -27 43.5s-8.5 32.833 -8.5 49.5h50z" />
    <glyph glyph-name="afii10145" unicode="&#x40f;" horiz-adv-x="548" 
d="M152 700v-612h274v612h94v-700h-184v-226h-94v226h-184v700h94z" />
    <glyph glyph-name="afii10017" unicode="&#x410;" horiz-adv-x="594" 
d="M58 0l-0.00195312 452.001c0 33.333 5.5 65.5 16.5 96.5s26.833 58.5 47.5 82.5s45.667 43.167 75 57.5s62.666 21.5 99.999 21.5c36.667 0 69.834 -7.16699 99.501 -21.5s54.834 -33.5 75.501 -57.5s36.5 -51.5 47.5 -82.5s16.5 -63.167 16.5 -96.5v-452h-94v318h-254
v88h254v44c0 24 -3.5 46.5 -10.5 67.5s-16.667 39.167 -29 54.5s-27.5 27.5 -45.5 36.5s-38 13.5 -60 13.5c-18 0 -35.833 -3.5 -53.5 -10.5s-33.167 -17.667 -46.5 -32s-24.166 -32.333 -32.499 -54s-12.5 -46.834 -12.5 -75.501v-450h-94z" />
    <glyph glyph-name="afii10018" unicode="&#x411;" horiz-adv-x="578" 
d="M467 612l-314.998 0.00195312v-372c0 -13.333 0.666992 -26.833 2 -40.5s4.5 -27 9.5 -40s12.5 -25.167 22.5 -36.5s23.667 -21.333 41 -30c10.667 -5.33301 21.834 -9.16602 33.501 -11.499s23.167 -3.5 34.5 -3.5c19.333 0 39.333 3.33301 60 10s38.667 16.667 54 30
c11.333 10 21.333 23.333 30 40s13 38 13 64c0 20 -3.5 38.333 -10.5 55s-17 31 -30 43s-28.333 21.333 -46 28s-36.834 10 -57.501 10c-19.333 0 -39.5 -2.33301 -60.5 -7s-40.833 -11.334 -59.5 -20.001v89c44.667 17.333 88 26 130 26c32.667 0 63 -5 91 -15
s52.167 -24.333 72.5 -43s36.166 -40.834 47.499 -66.501s17 -54.5 17 -86.5c0 -36.667 -6.33301 -70 -19 -100s-30.334 -55.833 -53.001 -77.5s-49.5 -38.334 -80.5 -50.001s-64.833 -17.5 -101.5 -17.5c-20 0 -39.833 2 -59.5 6s-38.5 10.667 -56.5 20
c-25.333 12.667 -45.833 27.5 -61.5 44.5s-27.667 35 -36 54s-13.833 38.667 -16.5 59s-4 40.5 -4 60.5v466h409v-88z" />
    <glyph glyph-name="afii10019" unicode="&#x412;" horiz-adv-x="579" 
d="M58 0l-0.00195312 476.995c0 34.667 5.66699 66.334 17 95.001s27 53.334 47 74.001s43.5 36.5 70.5 47.5s56.167 16.5 87.5 16.5c38.667 0 72.167 -5.83301 100.5 -17.5s51.833 -27 70.5 -46s32.667 -40.167 42 -63.5s14 -47 14 -71c0 -10.667 -1 -22.167 -3 -34.5
s-5.5 -24.666 -10.5 -36.999s-12.167 -24.166 -21.5 -35.499s-21.333 -21.333 -36 -30c6 -3.33301 14.667 -8.66602 26 -15.999s22.833 -18 34.5 -32s21.667 -31.5 30 -52.5s12.5 -46.5 12.5 -76.5c0 -24.667 -4 -48.834 -12 -72.501s-20.833 -44.834 -38.5 -63.501
s-40.834 -33.667 -69.501 -45s-64 -17 -106 -17h-125v88h120c8.66699 0 20.834 0.5 36.501 1.5s30.834 5 45.501 12s27.5 18.333 38.5 34s16.5 38.167 16.5 67.5c0 35.333 -11.833 63.333 -35.5 84s-54.5 31 -92.5 31h-129v88h94c16.667 0 33 2.16699 49 6.5
s30 10.833 42 19.5s21.667 19.5 29 32.5s11 28.167 11 45.5s-3.33301 32.833 -10 46.5s-15.667 25.334 -27 35.001s-24.666 17.167 -39.999 22.5s-31.333 8 -48 8s-33.167 -3 -49.5 -9s-30.833 -15 -43.5 -27s-23 -27.167 -31 -45.5s-12 -40.166 -12 -65.499v-475h-94z" />
    <glyph glyph-name="afii10020" unicode="&#x413;" horiz-adv-x="451" 
d="M445 612l-138 -0.000976562h-32.5c-11 0 -21.833 -1 -32.5 -3s-21 -5.16699 -31 -9.5s-19 -10.833 -27 -19.5s-14.167 -18.167 -18.5 -28.5s-7.5 -21 -9.5 -32s-3.16699 -21.667 -3.5 -32s-0.5 -19.5 -0.5 -27.5v-460h-94v462c0 16 0.5 32.667 1.5 50
s3.33301 34.5 7 51.5s9.5 33.333 17.5 49s19 29.834 33 42.501c13.333 12 27.833 21 43.5 27s31.834 10.333 48.501 13s33.167 4.16699 49.5 4.5s32.166 0.5 47.499 0.5h139v-88z" />
    <glyph glyph-name="afii10021" unicode="&#x414;" horiz-adv-x="674" 
d="M10 88l471.998 0.000976562v524h-40c-15.333 0 -31.666 -0.5 -48.999 -1.5s-34.833 -3.83301 -52.5 -8.5s-35 -12 -52 -22s-32.833 -23.667 -47.5 -41c-11.333 -14 -20.166 -28.667 -26.499 -44s-11.166 -30.833 -14.499 -46.5s-5.5 -30.667 -6.5 -45
s-1.5 -27.5 -1.5 -39.5v-240h-94v240c0 16.667 0.5 34.667 1.5 54s3.66699 39.166 8 59.499s11.166 40.833 20.499 61.5s22.333 40.667 39 60c20.667 24 43 42.833 67 56.5s48.667 23.667 74 30s50.833 10.333 76.5 12s50.5 2.5 74.5 2.5h117v-612h88v-230h-88v142h-478
v-142h-88v230z" />
    <glyph glyph-name="afii10022" unicode="&#x415;" horiz-adv-x="493" 
d="M457 612l-164.996 0.000976562h-29c-10 0 -20.167 -0.666992 -30.5 -2s-20.333 -4.16602 -30 -8.49902s-18.5 -10.5 -26.5 -18.5c-6 -6 -11.333 -14.167 -16 -24.5s-7 -23.166 -7 -38.499c0 -16 3.33301 -30.667 10 -44c7.33301 -15.333 16.5 -27.166 27.5 -35.499
s22.5 -14.333 34.5 -18s24.167 -5.66699 36.5 -6s23.833 -0.5 34.5 -0.5h161v-88h-153c-22.667 0 -45.667 -1.16699 -69 -3.5s-44.666 -11.166 -63.999 -26.499c-9.33301 -7.33301 -18.5 -18.333 -27.5 -33s-13.5 -34.334 -13.5 -59.001
c0 -20.667 4.33301 -39.334 13 -56.001c8 -14.667 17.5 -26.167 28.5 -34.5s22.5 -14.5 34.5 -18.5s23.667 -6.5 35 -7.5s21 -1.5 29 -1.5h187v-88h-193c-14.667 0 -29.834 0.666992 -45.501 2s-31.334 4.5 -47.001 9.5s-31 12 -46 21s-29.5 21.5 -43.5 37.5
c-17.333 19.333 -29.333 39.833 -36 61.5s-10 44.167 -10 67.5c0 32 4.83301 58.667 14.5 80s20.667 38.666 33 51.999s24.5 23.333 36.5 30s20.667 11 26 13c-26 16.667 -47 38.5 -63 65.5s-24 58.167 -24 93.5c0 30 5 54.667 15 74s20.667 34.333 32 45
c12 11.333 24.667 20.166 38 26.499s27.166 11.166 41.499 14.499s29.166 5.33301 44.499 6s30.666 1 45.999 1h181v-88z" />
    <glyph glyph-name="afii10024" unicode="&#x416;" horiz-adv-x="874" 
d="M745 484c-10 -23.333 -20.4971 -43.3369 -31.4971 -60.0039s-29.5 -30.667 -55.5 -42c38.667 -5.33301 69 -17.5 91 -36.5s38.167 -40.333 48.5 -64s16.666 -47 18.999 -70s3.5 -41.167 3.5 -54.5v-157h-94v168c0 9.33301 -1.16699 22.5 -3.5 39.5
s-8.33301 33.667 -18 50s-24.334 30.5 -44.001 42.5s-47.167 18 -82.5 18h-94v-318h-94v318h-97c-34 0 -60.833 -5.83301 -80.5 -17.5s-34.167 -25.667 -43.5 -42s-15.166 -33 -17.499 -50s-3.5 -30.5 -3.5 -40.5v-168h-94v157c0 8.66699 0.333008 19.834 1 33.501
s2.66699 28.334 6 44.001s8.5 31.334 15.5 47.001s16.5 30.334 28.5 44.001s27 25.5 45 35.5s40 17 66 21c-26 11.333 -44.5 25.333 -55.5 42s-21.5 36.667 -31.5 60l-91 216h98l65 -161c2.66699 -7.33301 6.16699 -15.5 10.5 -24.5s9 -18 14 -27s10 -17.5 15 -25.5
s9.83301 -14.333 14.5 -19c16 -17.333 32.167 -27.833 48.5 -31.5s31.166 -5.5 44.499 -5.5h42v294h94v-294h42c13.333 0 28.166 1.83301 44.499 5.5s32.5 14.167 48.5 31.5c4.66699 4.66699 9.5 11 14.5 19s10 16.5 15 25.5s9.5 18 13.5 27l11 24.5l65 161h98z" />
    <glyph glyph-name="afii10025" unicode="&#x417;" horiz-adv-x="493" 
d="M213 700l42.9961 0.00683594c14.667 0 29.5 -1.5 44.5 -4.5s29.833 -7.83301 44.5 -14.5s28.667 -16.334 42 -29.001c11.333 -10.667 22 -25.5 32 -44.5s15 -43.833 15 -74.5c0 -35.333 -8 -66.5 -24 -93.5s-37 -48.833 -63 -65.5c25.333 -10 45.333 -23.167 60 -39.5
s25.334 -31.833 32.001 -46.5c6.66699 -14 11.334 -28.5 14.001 -43.5s4 -30.167 4 -45.5c0 -23.333 -3.33301 -45.833 -10 -67.5s-18.667 -42.167 -36 -61.5c-15.333 -17.333 -31.333 -30.833 -48 -40.5s-33.667 -16.667 -51 -21s-34.5 -6.83301 -51.5 -7.5
s-33.167 -1 -48.5 -1h-176v88h173c12 0 24.667 0.5 38 1.5s26.333 3.5 39 7.5s24.5 10.167 35.5 18.5s20.5 20.166 28.5 35.499c8.66699 16.667 13 35 13 55c0 21.333 -4 39.666 -12 54.999s-17.667 27.666 -29 36.999c-19.333 15.333 -40.666 24.166 -63.999 26.499
s-46.333 3.5 -69 3.5h-117v88h125c10.667 0 22.167 0.166992 34.5 0.5s24.5 2.33301 36.5 6s23.5 9.66699 34.5 18s20.167 20.166 27.5 35.499c6.66699 13.333 10 28 10 44c0 15.333 -2.33301 28.166 -7 38.499s-10 18.5 -16 24.5c-13.333 14 -29.166 22.333 -47.499 25
s-36.833 4 -55.5 4h-178v88h177z" />
    <glyph glyph-name="afii10026" unicode="&#x418;" horiz-adv-x="624" 
d="M152 700l-0.999023 -548c0 -3.33301 0.166992 -7.33301 0.5 -12s2.83301 -7 7.5 -7c3.33301 0 7.33301 4.5 12 13.5s10.667 21.5 18 37.5l205 433c15.333 32 30.333 55.5 45 70.5s33.334 22.5 56.001 22.5c14.667 0 26.667 -2.83301 36 -8.5s16.5 -13.5 21.5 -23.5
s8.5 -21.667 10.5 -35s3 -27.333 3 -42v-601h-94v546v12c0 4.66699 -2.66699 7 -8 7c-2.66699 0 -5.5 -2.16699 -8.5 -6.5s-6 -9.16602 -9 -14.499s-5.83301 -11 -8.5 -17s-4.66699 -10.333 -6 -13l-205 -431c-6 -13.333 -12.167 -25.5 -18.5 -36.5
s-13.333 -20.833 -21 -29.5s-16.334 -15.334 -26.001 -20.001s-20.834 -7 -33.501 -7c-15.333 0 -27.5 2.83301 -36.5 8.5s-16 13.5 -21 23.5s-8.33301 21.667 -10 35s-2.5 27.333 -2.5 42v601h94z" />
    <glyph glyph-name="afii10027" unicode="&#x419;" horiz-adv-x="624" 
d="M152 700l-1.00293 -548.001c0 -3.33301 0.166992 -7.33301 0.5 -12s2.83301 -7 7.5 -7c3.33301 0 7.33301 4.5 12 13.5s10.667 21.5 18 37.5l205 433c15.333 32 30.333 55.5 45 70.5s33.334 22.5 56.001 22.5c16.667 0 29.834 -3.5 39.501 -10.5s16.834 -16 21.501 -27
s7.5 -22.833 8.5 -35.5s1.5 -24.667 1.5 -36v-601h-94v546v12c0 4.66699 -2.66699 7 -8 7c-2.66699 0 -5.5 -2.16699 -8.5 -6.5s-6 -9.16602 -9 -14.499s-5.83301 -11 -8.5 -17s-4.66699 -10.333 -6 -13l-205 -431c-15.333 -32 -30 -55.5 -44 -70.5s-32.333 -22.5 -55 -22.5
c-23.333 0 -40.833 7.83301 -52.5 23.5s-17.5 44.167 -17.5 85.5v601h94zM220.997 846.999c4 -21.333 14.333 -38.5 31 -51.5s37.667 -19.5 63 -19.5s46.333 6.5 63 19.5s27 30.167 31 51.5h70c-4.66699 -40.667 -22.167 -72.667 -52.5 -96s-67.5 -35 -111.5 -35
s-81.167 11.667 -111.5 35s-47.833 55.333 -52.5 96h70z" />
    <glyph glyph-name="afii10028" unicode="&#x41a;" horiz-adv-x="576" 
d="M58 0l-0.000976562 699.999h94v-294h63c12.667 0 25 1.16699 37 3.5s23.333 7 34 14s21 16.667 31 29s19.667 28.833 29 49.5l89 198h105l-78 -171l-24.5 -51.5c-7 -14.333 -14 -26.833 -21 -37.5s-14.5 -20.167 -22.5 -28.5s-17.333 -16.166 -28 -23.499
c14.667 -3.33301 30.167 -8.66602 46.5 -15.999s31.5 -18.833 45.5 -34.5s25.5 -36.334 34.5 -62.001s13.5 -57.834 13.5 -96.501v-179h-94v180c0 11.333 -0.833008 24.833 -2.5 40.5s-6.5 30.834 -14.5 45.501s-20.167 27 -36.5 37s-39.166 15 -68.499 15h-138v-318h-94z
" />
    <glyph glyph-name="afii10029" unicode="&#x41b;" horiz-adv-x="604" 
d="M546 0l-93.998 0.000976562v612h-46c-13.333 0 -28.333 -0.5 -45 -1.5s-34 -3.83301 -52 -8.5s-35.667 -12 -53 -22s-33.333 -24 -48 -42c-21.333 -26.667 -34.5 -56 -39.5 -88s-7.5 -62.667 -7.5 -92v-358h-171v88h77v270c0 22 0.833008 43.667 2.5 65
s5.16699 42.166 10.5 62.499s13 40.166 23 59.499s23.333 38.333 40 57c20 22.667 41.167 40.5 63.5 53.5s44.666 22.833 66.999 29.5s44.666 10.834 66.999 12.501s43.5 2.5 63.5 2.5h142v-700z" />
    <glyph glyph-name="afii10030" unicode="&#x41c;" horiz-adv-x="786" 
d="M4 0l77.002 611c1.33301 9.33301 3.16602 19.833 5.49902 31.5s6.5 22.5 12.5 32.5s14.167 18.333 24.5 25s23.833 10 40.5 10c14 0 25.833 -2.83301 35.5 -8.5s17.834 -13.167 24.501 -22.5s12.167 -19.833 16.5 -31.5s8.16602 -23.167 11.499 -34.5l141 -463l141 463
c3.33301 11.333 7.16602 22.833 11.499 34.5s9.83301 22.167 16.5 31.5s14.834 16.833 24.501 22.5s21.5 8.5 35.5 8.5c16.667 0 30.167 -3.33301 40.5 -10s18.5 -15 24.5 -25s10.167 -20.833 12.5 -32.5s4.16602 -22.167 5.49902 -31.5l77 -611h-98l-69 568l-150 -496
c-3.33301 -11.333 -6.83301 -22 -10.5 -32s-8.16699 -18.667 -13.5 -26s-11.833 -13.166 -19.5 -17.499s-17.167 -6.5 -28.5 -6.5s-20.833 2.16699 -28.5 6.5s-14.167 10.166 -19.5 17.499s-9.83301 16 -13.5 26s-7.16699 20.667 -10.5 32l-150 496l-69 -568h-98z" />
    <glyph glyph-name="afii10031" unicode="&#x41d;" horiz-adv-x="608" 
d="M58 0v700h94v-294h304v294h94v-700h-94v318h-304v-318h-94z" />
    <glyph glyph-name="afii10032" unicode="&#x41e;" horiz-adv-x="800" 
d="M36 350c0 50 9.83301 96.833 29.5 140.5s46.167 81.834 79.5 114.501s72 58.334 116 77.001s90.333 28 139 28s95 -9.33301 139 -28s82.667 -44.334 116 -77.001s59.833 -70.834 79.5 -114.501s29.5 -90.5 29.5 -140.5s-9.83301 -96.833 -29.5 -140.5
s-46.167 -81.834 -79.5 -114.501s-72 -58.334 -116 -77.001s-90.333 -28 -139 -28s-95 9.33301 -139 28s-82.667 44.334 -116 77.001s-59.833 70.834 -79.5 114.501s-29.5 90.5 -29.5 140.5zM134 350c0 -36.667 6.66699 -71.5 20 -104.5s32 -61.833 56 -86.5
s52.167 -44.334 84.5 -59.001s67.5 -22 105.5 -22s73.167 7.33301 105.5 22s60.5 34.334 84.5 59.001s42.667 53.5 56 86.5s20 67.833 20 104.5s-6.66699 71.5 -20 104.5s-32 61.833 -56 86.5s-52.167 44.334 -84.5 59.001s-67.5 22 -105.5 22s-73.167 -7.33301 -105.5 -22
s-60.5 -34.334 -84.5 -59.001s-42.667 -53.5 -56 -86.5s-20 -67.833 -20 -104.5z" />
    <glyph glyph-name="afii10033" unicode="&#x41f;" horiz-adv-x="608" 
d="M550 700v-700h-94v612h-304v-612h-94v700h492z" />
    <glyph glyph-name="afii10034" unicode="&#x420;" horiz-adv-x="560" 
d="M58 0l0.00292969 459.997c0 40 5.66699 75.5 17 106.5s27.166 57.167 47.499 78.5s44.666 37.5 72.999 48.5s59.833 16.5 94.5 16.5c38.667 0 72.667 -6.33301 102 -19s53.666 -29.834 72.999 -51.501s34 -46.834 44 -75.501s15 -58.667 15 -90
c0 -19.333 -2 -38.166 -6 -56.499s-10.667 -36.166 -20 -53.499c-14 -26 -30 -46.167 -48 -60.5s-37 -25.166 -57 -32.499s-40.333 -11.833 -61 -13.5s-41 -2.5 -61 -2.5h-83v88h94c46 0 81.5 12.333 106.5 37s37.5 56.667 37.5 96c0 18.667 -2.83301 36.834 -8.5 54.501
s-14.167 33.334 -25.5 47.001s-25.5 24.5 -42.5 32.5s-37.167 12 -60.5 12c-43.333 0 -77 -14.833 -101 -44.5s-36 -67.5 -36 -113.5v-464h-94z" />
    <glyph glyph-name="afii10035" unicode="&#x421;" horiz-adv-x="502" 
d="M476 612h-66.002c-32 0 -61.167 -4.16699 -87.5 -12.5s-49.666 -19 -69.999 -32s-38 -27.833 -53 -44.5s-26.833 -33.334 -35.5 -50.001c-20 -37.333 -30 -78.333 -30 -123c0 -28 3.5 -55.167 10.5 -81.5s18.167 -50.833 33.5 -73.5c16 -24 33.333 -43 52 -57
s37.834 -24.667 57.501 -32s39 -12.166 58 -14.499s36.833 -3.5 53.5 -3.5h77v-88h-65c-24 0 -50.167 1.5 -78.5 4.5s-57.166 10 -86.499 21s-57.833 27.333 -85.5 49s-52.834 51.167 -75.501 88.5c-17.333 28 -29.833 58 -37.5 90s-11.5 64.333 -11.5 97
c0 36 4.66699 69.167 14 99.5s21.833 57.5 37.5 81.5s33.167 45.167 52.5 63.5s39 33.5 59 45.5c32 20 67.5 35 106.5 45s77.833 15 116.5 15h54v-88z" />
    <glyph glyph-name="afii10036" unicode="&#x422;" horiz-adv-x="436" 
d="M-3 700h442v-88h-174v-612h-94v612h-174v88z" />
    <glyph glyph-name="afii10037" unicode="&#x423;" horiz-adv-x="605" 
d="M152 699v-217.997c0 -8.66699 0.5 -17.834 1.5 -27.501s3 -19.334 6 -29.001s7.5 -18.834 13.5 -27.501s14.333 -16.667 25 -24c15.333 -10.667 33 -17.334 53 -20.001s41.667 -4 65 -4h101v-88h-99c-12 0 -25 0.166992 -39 0.5s-28.5 1.5 -43.5 3.5
s-29.833 5.16699 -44.5 9.5s-28.667 10.5 -42 18.5c-22 12.667 -39 27.834 -51 45.501s-21 36 -27 55s-9.66699 37.667 -11 56s-2 34.5 -2 48.5v201h94zM271 88.0029c23.333 0 47 1.16992 71 3.50293s44.667 9.16602 62 20.499c12 8 21.333 17 28 27s11.5 20.5 14.5 31.5
s4.83301 21.667 5.5 32s1 20.166 1 29.499v467h94v-442c0 -19.333 -0.5 -38.5 -1.5 -57.5s-4 -37.667 -9 -56s-13 -35.833 -24 -52.5s-26.5 -32.334 -46.5 -47.001c-30 -21.333 -61.5 -34 -94.5 -38s-66.5 -6 -100.5 -6h-171v88h171z" />
    <glyph glyph-name="afii10038" unicode="&#x424;" horiz-adv-x="860" 
d="M477 781v-83.998h10c50.667 0 96.667 -8.33301 138 -25s76.666 -39.334 105.999 -68.001s52.166 -62.5 68.499 -101.5s24.5 -80.5 24.5 -124.5c0 -37.333 -6.66699 -74.333 -20 -111s-33 -70 -59 -100s-58.5 -54.833 -97.5 -74.5s-84.167 -30.5 -135.5 -32.5v94
c33.333 1.33301 63.166 8.66602 89.499 21.999s48.833 30.333 67.5 51s32.834 44.167 42.501 70.5s14.5 53.166 14.5 80.499c0 30 -5.66699 58.667 -17 86s-27.5 51.5 -48.5 72.5s-46.5 37.833 -76.5 50.5s-64 19 -102 19h-5v-633h-94v87h-12
c-49.333 0 -94.5 8.33301 -135.5 25s-76.167 39.334 -105.5 68.001s-52.333 62.5 -69 101.5s-25 80.5 -25 124.5c0 36.667 6.66699 73.5 20 110.5s33.166 70.5 59.499 100.5s58.833 54.833 97.5 74.5s83.334 30.5 134.001 32.5v-94c-33.333 -2 -63.166 -9.66699 -89.499 -23
s-48.666 -30.333 -66.999 -51s-32.333 -44 -42 -70s-14.5 -52.667 -14.5 -80c0 -30 5.5 -58.833 16.5 -86.5s26.833 -52 47.5 -73s46 -37.667 76 -50s64.333 -18.5 103 -18.5h6v630h94z" />
    <glyph glyph-name="afii10039" unicode="&#x425;" 
d="M4 88c14 0 30 1.66699 48 5s36.5 10.166 55.5 20.499s37.167 24.833 54.5 43.5s32.666 43.667 45.999 75c8 19.333 13.667 38.833 17 58.5s5 39.5 5 59.5s-1.66699 39.833 -5 59.5s-9 39.167 -17 58.5c-13.333 31.333 -28.666 56.333 -45.999 75s-35.5 33.167 -54.5 43.5
s-37.5 17.166 -55.5 20.499s-34 5 -48 5v88c28 -1.33301 56.167 -6 84.5 -14s54.833 -20.167 79.5 -36.5s46.5 -36.833 65.5 -61.5s33.5 -54 43.5 -88c10 34 24.5 63.333 43.5 88s40.833 45.167 65.5 61.5s51.167 28.5 79.5 36.5s56.5 12.667 84.5 14v-88
c-14 0 -30 -1.66699 -48 -5s-36.5 -10.166 -55.5 -20.499s-37.333 -24.833 -55 -43.5s-32.834 -43.667 -45.501 -75c-8 -19.333 -13.667 -38.833 -17 -58.5s-5 -39.5 -5 -59.5s1.66699 -39.833 5 -59.5s9 -39.167 17 -58.5c12.667 -31.333 27.834 -56.333 45.501 -75
s36 -33.167 55 -43.5s37.5 -17.166 55.5 -20.499s34 -5 48 -5v-88c-28 0.666992 -56.167 5.16699 -84.5 13.5s-54.833 20.666 -79.5 36.999s-46.5 36.833 -65.5 61.5s-33.5 54 -43.5 88c-10 -34 -24.5 -63.333 -43.5 -88s-40.833 -45.167 -65.5 -61.5
s-51.167 -28.666 -79.5 -36.999s-56.5 -12.833 -84.5 -13.5v88v0z" />
    <glyph glyph-name="afii10040" unicode="&#x426;" horiz-adv-x="648" 
d="M152 700l0.000976562 -446c0 -8.66699 0.166992 -18.5 0.5 -29.5s1.5 -22.167 3.5 -33.5s5.16699 -22.5 9.5 -33.5s10.833 -21.167 19.5 -30.5s18.167 -16.666 28.5 -21.999s21 -9.33301 32 -12s22.5 -4.16699 34.5 -4.5s24.333 -0.5 37 -0.5h321v-230h-88v142h-242
c-16 0 -31.833 0.333008 -47.5 1s-31.334 2.66699 -47.001 6s-31.167 8.66602 -46.5 15.999s-30 17.666 -44 30.999c-28 26 -45.833 54.833 -53.5 86.5s-11.5 64.834 -11.5 99.501v460h94zM456.001 124v576h94v-576h-94z" />
    <glyph glyph-name="afii10041" unicode="&#x427;" horiz-adv-x="581" 
d="M523 700l-0.00195312 -699.999h-94v260h-122c-23.333 0 -49.833 0.666992 -79.5 2s-58.167 8.66602 -85.5 21.999c-23.333 11.333 -42 25.333 -56 42s-24.667 34.5 -32 53.5s-12.166 38 -14.499 57s-3.5 36.5 -3.5 52.5v211h94v-212c0 -10 0.5 -20.333 1.5 -31
s3 -21.167 6 -31.5s7.66699 -20.333 14 -30s14.833 -18.167 25.5 -25.5c17.333 -11.333 37.333 -17.833 60 -19.5s44.334 -2.5 65.001 -2.5h127v352h94z" />
    <glyph glyph-name="afii10042" unicode="&#x428;" horiz-adv-x="906" 
d="M152 700l-0.00292969 -453.999v-29c0 -10.667 1 -21.5 3 -32.5s5.33301 -21.833 10 -32.5s11.667 -20.334 21 -29.001c16.667 -16.667 36.334 -26.667 59.001 -30s44.334 -5 65.001 -5h444v612h94v-700h-544c-15.333 -0 -30.833 0.333008 -46.5 1
s-31.5 2.83398 -47.5 6.50098s-31.5 9 -46.5 16s-29.167 16.833 -42.5 29.5c-14.667 13.333 -26.167 28 -34.5 44s-14.666 32.667 -18.999 50s-7 34.666 -8 51.999s-1.5 34.333 -1.5 51v450h94zM499.997 700.001v-576h-94v576h94z" />
    <glyph glyph-name="afii10043" unicode="&#x429;" horiz-adv-x="946" 
d="M152 700v-453.001v-28.5c0 -11 1 -22.167 3 -33.5s5.33301 -22.5 10 -33.5s11.667 -20.833 21 -29.5c17.333 -16.667 38 -26.5 62 -29.5s47.667 -4.5 71 -4.5h617v-230h-88v142h-528c-18 0 -35.833 0.333008 -53.5 1s-35 2.66699 -52 6s-33.333 8.5 -49 15.5
s-30.5 17.167 -44.5 30.5c-14 12.667 -25 26.834 -33 42.501s-14.333 31.5 -19 47.5s-7.66699 32 -9 48s-2 30.667 -2 44v465h94zM500 699.999v-576h-94v576h94zM848 123.999h-94v576h94v-576z" />
    <glyph glyph-name="afii10044" unicode="&#x42a;" horiz-adv-x="668" 
d="M232 700l0.00195312 -449.996c0 -10 0.333008 -20.833 1 -32.5s2.33398 -23.334 5.00098 -35.001s7 -23.334 13 -35.001s14.333 -22.5 25 -32.5c15.333 -14.667 32.166 -24.5 50.499 -29.5s36.5 -7.5 54.5 -7.5c22 0 42.667 3.16699 62 9.5s36 16 50 29s25 29.5 33 49.5
s12 43.333 12 70c0 48 -13 85.833 -39 113.5s-62 41.5 -108 41.5c-4.66699 0 -11.334 -0.333008 -20.001 -1s-18.5 -2 -29.5 -4s-22.833 -5.33301 -35.5 -10s-25.334 -11 -38.001 -19v96l30.5 11c9 3.33301 18 6 27 8s18.333 3.66699 28 5s21.167 2 34.5 2
c42 0 78.333 -6.83301 109 -20.5s56 -31.834 76 -54.501s34.833 -48.167 44.5 -76.5s14.5 -57.5 14.5 -87.5c0 -31.333 -5.16699 -61.833 -15.5 -91.5s-26 -56.334 -47 -80.001s-47.667 -42.667 -80 -57s-70.5 -21.5 -114.5 -21.5c-28 0 -55.667 3.5 -83 10.5
s-53.333 22.167 -78 45.5c-32 30 -52.667 62.833 -62 98.5s-14 70.5 -14 104.5v363h-148v88h242z" />
    <glyph glyph-name="afii10045" unicode="&#x42b;" horiz-adv-x="765" 
d="M152 247c0 -9.33301 0.166992 -19.6611 0.5 -30.9941s1.83301 -22.833 4.5 -34.5s7 -23.334 13 -35.001s14.667 -22.5 26 -32.5c11.333 -10.667 25.166 -19.334 41.499 -26.001s34.833 -10 55.5 -10c14.667 0 29.167 1.16699 43.5 3.5s28.166 6.83301 41.499 13.5
c23.333 11.333 42.666 28.166 57.999 50.499s23 52.5 23 90.5c0 22.667 -3.66699 43.5 -11 62.5s-17.666 35.333 -30.999 49s-29.333 24.334 -48 32.001s-39.667 11.5 -63 11.5c-20.667 0 -40.667 -3.16699 -60 -9.5s-38.666 -14.5 -57.999 -24.5v96l30.5 11
c9 3.33301 18 6 27 8s18.333 3.66699 28 5s21.167 2 34.5 2c42 0 78.333 -6.83301 109 -20.5s56 -31.834 76 -54.501s35 -48.167 45 -76.5s15 -57.5 15 -87.5c0 -52.667 -13.333 -99.834 -40 -141.501s-64 -71.834 -112 -90.501
c-17.333 -6.66699 -35.166 -11.334 -53.499 -14.001s-36.833 -4 -55.5 -4c-25.333 0 -52 3.5 -80 10.5s-54.667 22.167 -80 45.5c-16 14.667 -28.833 30 -38.5 46s-17.167 32.5 -22.5 49.5s-8.83301 34.333 -10.5 52s-2.5 35.167 -2.5 52.5v454h94v-453zM613 0.00488281v700
h94v-700h-94z" />
    <glyph glyph-name="afii10046" unicode="&#x42c;" horiz-adv-x="589" 
d="M152 247c0 -12 0.5 -25.667 1.5 -41s4.5 -30.5 10.5 -45.5s15.167 -29.167 27.5 -42.5s29.5 -23.666 51.5 -30.999c18 -6 36.667 -9 56 -9c13.333 0 26.666 1.33301 39.999 4s26.333 7 39 13c9.33301 4.66699 18.833 10.667 28.5 18s18.334 16.5 26.001 27.5
s14 24.167 19 39.5s7.5 33.333 7.5 54c0 23.333 -3.66699 44.666 -11 63.999s-17.666 35.833 -30.999 49.5s-29.5 24.334 -48.5 32.001s-39.833 11.5 -62.5 11.5c-20.667 0 -40.667 -3.16699 -60 -9.5s-38.666 -14.5 -57.999 -24.5v96l33 12c9.33301 3.33301 18.5 6 27.5 8
s18.333 3.5 28 4.5s20.5 1.5 32.5 1.5c41.333 0 77.333 -6.83301 108 -20.5s56 -31.667 76 -54s35 -47.833 45 -76.5s15 -58 15 -88c0 -52.667 -13.333 -99.834 -40 -141.501s-64 -71.834 -112 -90.501c-16.667 -6.66699 -33.834 -11.334 -51.501 -14.001s-35.5 -4 -53.5 -4
c-15.333 0 -30.666 0.833008 -45.999 2.5s-30.333 5.16699 -45 10.5c-34.667 12 -61.834 28.5 -81.501 49.5s-34.334 43.333 -44.001 67s-15.667 46.834 -18 69.501s-3.5 41.334 -3.5 56.001v455h94v-453z" />
    <glyph glyph-name="afii10047" unicode="&#x42d;" horiz-adv-x="508" 
d="M374 406c-4 26.667 -13.498 52.5029 -28.498 77.5029s-34.167 47 -57.5 66s-49.833 34.167 -79.5 45.5s-60.834 17 -93.501 17h-79v88h64c62.667 0 117.334 -10.5 164.001 -31.5s85.334 -48.167 116.001 -81.5s53.667 -70.833 69 -112.5s23 -83.167 23 -124.5
s-7.66699 -82.833 -23 -124.5s-38.333 -79.167 -69 -112.5s-69.334 -60.5 -116.001 -81.5s-101.334 -31.5 -164.001 -31.5h-64v88h79c35.333 0 68.166 5.66699 98.499 17s56.833 27.166 79.5 47.499s41 44.666 55 72.999s22.667 59.166 26 92.499h-338v88h338z" />
    <glyph glyph-name="afii10048" unicode="&#x42e;" horiz-adv-x="1007" 
d="M346 406c-1.33301 -8.66699 -2.49512 -16.999 -3.49512 -24.999s-1.5 -16.333 -1.5 -25c0 -32 5.66699 -64.5 17 -97.5s28 -62.833 50 -89.5s49 -48.5 81 -65.5s68.667 -25.5 110 -25.5c40 0 76.833 7.16699 110.5 21.5s62.5 33.833 86.5 58.5s42.833 53 56.5 85
s20.5 66 20.5 102c0 39.333 -7.16699 76 -21.5 110s-33.833 63.333 -58.5 88s-53.167 44 -85.5 58s-66.833 21 -103.5 21c-24.667 0 -49.834 -3.83301 -75.501 -11.5s-49.834 -19 -72.501 -34s-43 -33.833 -61 -56.5s-32 -48.667 -42 -78h-94
c10.667 38.667 27.167 74.334 49.5 107.001s48.833 61 79.5 85s64.667 42.667 102 56s76.666 20 117.999 20c49.333 0 96 -9.5 140 -28.5s82.5 -44.667 115.5 -77s59.167 -70.333 78.5 -114s29 -90.5 29 -140.5c0 -51.333 -9.66699 -99 -29 -143s-45.5 -82 -78.5 -114
s-71.5 -57.167 -115.5 -75.5s-90.333 -27.5 -139 -27.5c-46 0 -89.667 7.66699 -131 23s-78.333 37.166 -111 65.499s-59.834 62.666 -81.501 102.999s-35.834 85.833 -42.501 136.5h-91v-318h-94v700h94v-294h194z" />
    <glyph glyph-name="afii10049" unicode="&#x42f;" horiz-adv-x="553" 
d="M42 122c0 17.333 0.498047 35.665 1.49805 54.998s5.16699 38 12.5 56s19 34.833 35 50.5s38.667 28.167 68 37.5c-21.333 7.33301 -39.666 17.5 -54.999 30.5s-28 27.333 -38 43s-17.5 32.5 -22.5 50.5s-7.5 35.667 -7.5 53c0 23.333 3.33301 45 10 65
s15.834 38 27.501 54s25.334 30 41.001 42s32.167 22 49.5 30c17.333 7.33301 35 12.666 53 15.999s36.667 5 56 5c21.333 0 42.5 -2.5 63.5 -7.5s40.5 -13.167 58.5 -24.5c22.667 -14 40.5 -30.167 53.5 -48.5s23 -37.5 30 -57.5s11.5 -40 13.5 -60s3 -39 3 -57v-455h-94
v455c0 10.667 -0.5 23.167 -1.5 37.5s-4 28.833 -9 43.5s-12.5 28.667 -22.5 42s-24 24 -42 32c-9.33301 4.66699 -19.333 7.83398 -30 9.50098s-21.667 2.5 -33 2.5c-23.333 0 -45.333 -5 -66 -15c-6.66699 -3.33301 -14 -7.66602 -22 -12.999s-15.333 -12.333 -22 -21
s-12.167 -18.667 -16.5 -30s-6.5 -24.666 -6.5 -39.999c0 -14 2.16699 -28.833 6.5 -44.5s12.666 -30 24.999 -43s29.5 -23.667 51.5 -32s51 -12.5 87 -12.5h65v-88h-62c-23.333 0 -47.333 -3.66699 -72 -11s-44.334 -18.333 -59.001 -33
c-17.333 -17.333 -27.666 -36.833 -30.999 -58.5s-5 -41.167 -5 -58.5v-122h-94v122z" />
    <glyph glyph-name="afii10065" unicode="&#x430;" horiz-adv-x="572" 
d="M408 36c-19.333 -15.333 -40.3301 -26.834 -62.9971 -34.501s-48 -11.5 -76 -11.5c-34 0 -65.667 5.66699 -95 17s-55 27.666 -77 48.999s-39.333 46.833 -52 76.5s-19 63.167 -19 100.5c0 38.667 6.83301 73.834 20.5 105.501s32.334 58.834 56.001 81.501s51 40 82 52
s63.833 18 98.5 18c31.333 0 61.833 -5 91.5 -15s56.167 -26.167 79.5 -48.5s42.166 -51.166 56.499 -86.499s21.5 -78 21.5 -128v-212h-88v215c0 40 -5.5 72.5 -16.5 97.5s-24.667 44.5 -41 58.5s-34 23.333 -53 28s-36.833 7 -53.5 7
c-22.667 0 -43.834 -3.83301 -63.501 -11.5s-37 -18.667 -52 -33s-26.833 -31.833 -35.5 -52.5s-13 -44 -13 -70c0 -30 5.33301 -55.5 16 -76.5s24.167 -38 40.5 -51s34.166 -22.5 53.499 -28.5s38 -9 56 -9c25.333 0 48.166 4.66699 68.499 14s39.5 22.666 57.5 39.999v-92
z" />
    <glyph glyph-name="afii10066" unicode="&#x431;" horiz-adv-x="580" 
d="M164 446c19.333 14.667 40.834 25.6689 64.501 33.002s46.5 11 68.5 11c19.333 0 39 -1.83301 59 -5.5s38.667 -10.167 56 -19.5c40 -20 71.667 -49.667 95 -89s35 -83 35 -131c0 -47.333 -10.667 -89.833 -32 -127.5s-47.666 -66.834 -78.999 -87.501
c-20.667 -13.333 -43.167 -23.333 -67.5 -30s-49.166 -10 -74.499 -10c-21.333 0 -40.666 2 -57.999 6s-32.833 9 -46.5 15s-25.5 12.5 -35.5 19.5s-18.333 13.5 -25 19.5c-21.333 18.667 -37.666 39 -48.999 61s-19.5 44.167 -24.5 66.5s-8 44.166 -9 65.499
s-1.5 41.333 -1.5 60v67c0 56 6.16699 103 18.5 141s28.166 69.333 47.499 94s41.333 43.334 66 56.001s49.334 22 74.001 28s48.167 9.33301 70.5 10s41.166 1 56.499 1h124v-84h-118c-27.333 0 -55.833 -1.33301 -85.5 -4s-56.834 -10.834 -81.501 -24.501
s-44.834 -34.834 -60.501 -63.501s-23.5 -69.334 -23.5 -122.001v-94c0 -20 0.666992 -41.167 2 -63.5s5.33301 -43.666 12 -63.999s16.834 -39 30.501 -56s32.5 -30.167 56.5 -39.5c18.667 -7.33301 38 -11 58 -11c32.667 0 62.667 8 90 24
c4.66699 2.66699 11.167 7.33398 19.5 14.001s16.666 15.667 24.999 27s15.5 25.333 21.5 42s9 36.667 9 60c0 20 -2.33301 38 -7 54s-10.834 30 -18.501 42s-16.334 22.167 -26.001 30.5s-19.5 15.166 -29.5 20.499c-12.667 6.66699 -26 11.334 -40 14.001s-28 4 -42 4
c-20.667 0 -42 -4.5 -64 -13.5s-42.333 -22.167 -61 -39.5v93z" />
    <glyph glyph-name="afii10067" unicode="&#x432;" horiz-adv-x="489" 
d="M40 304c0 30 5.66797 56.667 17.001 80s26.5 42.833 45.5 58.5s40.833 27.5 65.5 35.5s50.667 12 78 12c30 0 56.5 -3.83301 79.5 -11.5s42.5 -18 58.5 -31s28 -28 36 -45s12 -34.833 12 -53.5c0 -23.333 -6.5 -43.333 -19.5 -60s-28.5 -29.334 -46.5 -38.001
c29.333 -6.66699 52.833 -20.667 70.5 -42s26.5 -47.333 26.5 -78c0 -22 -5.33301 -42.333 -16 -61c-9.33301 -16.667 -20.333 -29.667 -33 -39s-26.334 -16.333 -41.001 -21s-30 -7.5 -46 -8.5s-32.333 -1.5 -49 -1.5h-114v84h111c10 0 20.833 0.333008 32.5 1
s22.334 2.83398 32.001 6.50098s17.667 9.33398 24 17.001s9.5 18.5 9.5 32.5c0 16 -3.66699 28.333 -11 37s-16.666 15 -27.999 19s-24 6.33301 -38 7s-27.667 1 -41 1h-91v80h75c9.33301 0 20 0.166992 32 0.5s23.167 2.16602 33.5 5.49902s19.166 8.83301 26.499 16.5
s11 18.5 11 32.5c0 6 -1.16699 12.667 -3.5 20s-6.66602 14.5 -12.999 21.5s-15.5 12.833 -27.5 17.5s-27.667 7 -47 7c-6.66699 0 -16.834 -0.833008 -30.501 -2.5s-27.334 -6.33398 -41.001 -14.001s-25.667 -19.667 -36 -36s-15.5 -39.166 -15.5 -68.499v-285h-88v304z
" />
    <glyph glyph-name="afii10068" unicode="&#x433;" horiz-adv-x="331" 
d="M40 273c0 10.667 0.164062 22.667 0.49707 36s1.83301 27.166 4.5 41.499s6.83398 28.5 12.501 42.5s14.167 27 25.5 39s23.5 21.333 36.5 28s26.5 11.5 40.5 14.5s28.333 4.66699 43 5s29.667 0.5 45 0.5h101v-84h-119c-15.333 0 -30.166 -1.16699 -44.499 -3.5
s-27.166 -10.166 -38.499 -23.499c-10.667 -13.333 -16.5 -29.333 -17.5 -48s-1.5 -34.667 -1.5 -48v-273h-88v273z" />
    <glyph glyph-name="afii10069" unicode="&#x434;" horiz-adv-x="572" 
d="M408 36c-21.333 -16 -42.1602 -27.6631 -62.4932 -34.9961s-43.166 -11 -68.499 -11c-28 0 -56.833 4.66699 -86.5 14s-56.667 23.833 -81 43.5s-44.333 45 -60 76s-23.5 68.5 -23.5 112.5c0 38 7 72.667 21 104s32.667 58.166 56 80.499s50.666 39.5 81.999 51.5
s64 18 98 18c11.333 0 25.5 -1 42.5 -3s34.667 -6.33301 53 -13s36.666 -16.667 54.999 -30s34.833 -31 49.5 -53s26.5 -49.333 35.5 -82s13.5 -72 13.5 -118v-144c0 -19.333 -0.833008 -38.333 -2.5 -57s-5 -36.834 -10 -54.501s-12.167 -34.834 -21.5 -51.501
s-21.666 -32.334 -36.999 -47.001c-8 -7.33301 -17.5 -14.833 -28.5 -22.5s-23.833 -14.667 -38.5 -21s-31.334 -11.5 -50.001 -15.5s-39.334 -6 -62.001 -6c-16.667 0 -37.834 1.83301 -63.501 5.5s-57.5 11.167 -95.5 22.5l21 80c26 -7.33301 49.667 -13.166 71 -17.499
s42 -6.5 62 -6.5c23.333 0 45.166 2.83301 65.499 8.5s38 15 53 28s26.833 30.333 35.5 52s13 48.834 13 81.501v165c0 13.333 -0.5 29.166 -1.5 47.499s-4.33301 37 -10 56s-14.834 37 -27.501 54s-30.334 31.167 -53.001 42.5c-21.333 10 -44.333 15 -69 15
c-23.333 0 -45 -4 -65 -12s-37.667 -19.5 -53 -34.5s-27.333 -33 -36 -54s-13 -44.167 -13 -69.5c0 -22.667 3.5 -43.834 10.5 -63.501s17 -36.834 30 -51.501s29 -26.167 48 -34.5s40.5 -12.5 64.5 -12.5c28.667 0 54.167 4.33301 76.5 13s43.166 22.334 62.499 41.001v-92
z" />
    <glyph glyph-name="afii10070" unicode="&#x435;" horiz-adv-x="551" 
d="M183 158l-35.998 69.999l237 132c-18 19.333 -36.667 31.833 -56 37.5s-37.666 8.5 -54.999 8.5c-23.333 0 -44.666 -4.16699 -63.999 -12.5s-35.833 -20 -49.5 -35s-24.334 -32.5 -32.001 -52.5s-11.5 -42 -11.5 -66c0 -34.667 7 -64 21 -88s31 -42.333 51 -55
c25.333 -15.333 53.666 -23 84.999 -23c16 0 31.833 1.5 47.5 4.5s30.167 8.5 43.5 16.5c20 12 36.667 29.333 50 52s20.666 48.334 21.999 77.001l89 -11c-2.66699 -28.667 -8.66699 -53.834 -18 -75.501s-20.166 -40.167 -32.499 -55.5s-24.833 -27.833 -37.5 -37.5
s-23.667 -17.167 -33 -22.5c-19.333 -11.333 -40 -19.5 -62 -24.5s-44.333 -7.5 -67 -7.5c-38.667 0 -76 8.66699 -112 26c-40.667 20 -73.667 49.333 -99 88s-38 84 -38 136c0 35.333 6.33301 68.333 19 99s30.167 57.167 52.5 79.5s48.666 39.833 78.999 52.5
s63.166 19 98.499 19c23.333 0 46.333 -3.16699 69 -9.5s44.167 -15.666 64.5 -27.999s38.833 -28 55.5 -47s31 -41.5 43 -67.5z" />
    <glyph glyph-name="afii10072" unicode="&#x436;" horiz-adv-x="676" 
d="M646 480l-60.001 -112c-5.33301 -10 -10.166 -19.5 -14.499 -28.5s-9.16602 -18 -14.499 -27s-12 -17.833 -20 -26.5s-18.333 -17.334 -31 -26.001c21.333 -2 40.666 -8 57.999 -18s31 -21.667 41 -35c16 -21.333 24.667 -44.333 26 -69s2 -48.667 2 -72v-66h-88v73
c0 16 -0.5 32 -1.5 48s-4.83301 30.167 -11.5 42.5s-17.834 22.333 -33.501 30s-37.834 11.5 -66.501 11.5h-50v-205h-88v205h-50c-29.333 0 -51.666 -3.83301 -66.999 -11.5s-26.333 -17.667 -33 -30s-10.5 -26.5 -11.5 -42.5s-1.5 -32 -1.5 -48v-73h-88v66
c0 23.333 0.666992 47.333 2 72s10 47.667 26 69c10 13.333 23.667 25 41 35s36.666 16 57.999 18c-12.667 8.66699 -23 17.334 -31 26.001s-14.667 17.5 -20 26.5s-10.166 18 -14.499 27s-9.16602 18.5 -14.499 28.5l-60 112h94l48 -93c20 -38.667 38.5 -64.667 55.5 -78
s32.5 -20 46.5 -20h20v191h88v-191h20c14 0 29.5 6.66699 46.5 20s35.5 39.333 55.5 78l48 93h94z" />
    <glyph glyph-name="afii10073" unicode="&#x437;" horiz-adv-x="407" 
d="M171 480l46.5 -0.000976562c15.667 0 30.667 -1.66699 45 -5s28.166 -8.83301 41.499 -16.5s25 -19.167 35 -34.5c12.667 -19.333 19 -40 19 -62c0 -16.667 -3.66699 -33.334 -11 -50.001c-4 -8.66699 -10.167 -18.334 -18.5 -29.001s-20.166 -20.334 -35.499 -29.001
c9.33301 -2.66699 20.833 -8 34.5 -16s25.5 -22.333 35.5 -43c9.33301 -20 14 -40 14 -60c0 -13.333 -1.83301 -26.166 -5.5 -38.499s-9.16699 -24.166 -16.5 -35.499c-10.667 -15.333 -22.5 -27 -35.5 -35s-26.833 -14 -41.5 -18s-30 -6.33301 -46 -7s-32.333 -1 -49 -1
h-153v84h156c22 0 40.833 1.33301 56.5 4s27.834 11.334 36.501 26.001c5.33301 9.33301 8 19.333 8 30c0 5.33301 -0.333008 10.333 -1 15s-2.33398 9.33398 -5.00098 14.001c-4.66699 8.66699 -10.834 15.167 -18.501 19.5s-16.5 7.5 -26.5 9.5s-20.5 3.16699 -31.5 3.5
s-21.833 0.5 -32.5 0.5h-106v84h106h25.5c9 0 17.5 0.833008 25.5 2.5s15.5 4.33398 22.5 8.00098s12.5 9.5 16.5 17.5c2.66699 4 4.33398 8.33301 5.00098 13s1 9.66699 1 15c0 7.33301 -1.33301 13.666 -4 18.999c-6.66699 15.333 -18.167 24.333 -34.5 27
s-34.5 4 -54.5 4h-145v84h141z" />
    <glyph glyph-name="afii10074" unicode="&#x438;" horiz-adv-x="496" 
d="M128 141l0.000976562 -16.001c0 -1.33301 0.333008 -2 1 -2c-0.666992 0 0 1 2 3l9 15.5c4 7 6.66699 11.167 8 12.5l173 260c6 8.66699 11.667 17.5 17 26.5s11.166 17.167 17.499 24.5s13.333 13.333 21 18s16.834 7 27.501 7c12.667 0 22.667 -2.83301 30 -8.5
s12.5 -12 15.5 -19s4.83301 -13.667 5.5 -20s1 -10.5 1 -12.5v-430h-88v336v16c0 1.33301 -0.333008 2 -1 2c0.666992 0 0 -1 -2 -3l-9 -15c-4 -6.66699 -6.66699 -11 -8 -13l-174 -257c-6 -8.66699 -11.667 -17.5 -17 -26.5s-11 -17.167 -17 -24.5
s-12.833 -13.333 -20.5 -18s-16.834 -7 -27.501 -7c-12.667 0 -22.5 2.5 -29.5 7.5s-12.167 11 -15.5 18s-5.33301 14.333 -6 22s-1 13.834 -1 18.501v424h88v-339z" />
    <glyph glyph-name="afii10075" unicode="&#x439;" horiz-adv-x="496" 
d="M128 141l0.000976562 -16c0 -1.33301 0.333008 -2 1 -2c-0.666992 0 0 1 2 3l9 15.5c4 7 6.66699 11.167 8 12.5l173 260c6 8.66699 11.667 17.5 17 26.5s11.166 17.167 17.499 24.5s13.333 13.333 21 18s16.834 7 27.501 7c14 0 24.5 -2.83301 31.5 -8.5
s12 -12.5 15 -20.5s4.66699 -16.167 5 -24.5s0.5 -15.166 0.5 -20.499v-416h-88v336v16c0 1.33301 -0.333008 2 -1 2c0.666992 0 0 -1 -2 -3l-9 -15c-4 -6.66699 -6.66699 -11 -8 -13l-174 -257c-6 -8.66699 -11.667 -17.5 -17 -26.5s-11 -17.167 -17 -24.5
s-12.833 -13.333 -20.5 -18s-16.834 -7 -27.501 -7c-14 0 -24.5 2.83301 -31.5 8.5s-12 12.5 -15 20.5s-4.66699 16.167 -5 24.5s-0.5 15.166 -0.5 20.499v416h88v-339zM406.001 681c-8 -38.667 -26 -68.834 -54 -90.501s-63 -32.5 -105 -32.5s-77 10.833 -105 32.5
s-46 51.834 -54 90.501h71c5.33301 -22.667 16.5 -39.334 33.5 -50.001s35.167 -16 54.5 -16s37.5 5.33301 54.5 16s28.167 27.334 33.5 50.001h71z" />
    <glyph glyph-name="afii10076" unicode="&#x43a;" horiz-adv-x="458" 
d="M128 480l0.00292969 -191.002h56c12 0 22.5 2 31.5 6s17.333 10.167 25 18.5s15 18.666 22 30.999l23.5 42.5l48 93h94l-52 -99l-33.5 -64c-11 -20.667 -28.167 -39.667 -51.5 -57c21.333 -3.33301 40.166 -10 56.499 -20s29.166 -21.333 38.499 -34
c14 -19.333 22.333 -40.666 25 -63.999s4 -46.666 4 -69.999v-72h-88v73c0 12.667 -0.833008 26.834 -2.5 42.501s-5.83398 30 -12.501 43s-17.167 24 -31.5 33s-33.833 13.5 -58.5 13.5h-94v-205h-88v480h88z" />
    <glyph glyph-name="afii10077" unicode="&#x43b;" horiz-adv-x="467" 
d="M339 0l0.000976562 395.998h-14c-19.333 0 -40.666 -1.66699 -63.999 -5s-45.666 -13.666 -66.999 -30.999c-14 -12 -25 -24.833 -33 -38.5s-13.833 -27.667 -17.5 -42s-5.83398 -28.833 -6.50098 -43.5s-1 -28.334 -1 -41.001v-195h-146v84h62v111
c0 16.667 0.666992 35.167 2 55.5s5.16602 41 11.499 62s16.166 41.667 29.499 62s32 38.833 56 55.5c16 10.667 33 19.334 51 26.001s36.5 11.834 55.5 15.501s38.167 6 57.5 7s38 1.5 56 1.5h56v-480h-88z" />
    <glyph glyph-name="afii10078" unicode="&#x43c;" horiz-adv-x="642" 
d="M84 417c1.33301 6.66699 3.33789 14.335 6.00488 23.002s6.5 16.667 11.5 24s11.333 13.5 19 18.5s17.5 7.5 29.5 7.5s21.833 -1.83301 29.5 -5.5s14 -8.5 19 -14.5s9 -12.833 12 -20.5s5.83301 -15.5 8.5 -23.5l73 -236c2.66699 -8 5 -16.167 7 -24.5
s4 -16.166 6 -23.499c1.33301 -5.33301 2.83301 -10.833 4.5 -16.5l6.5 -21.5c1.33301 -2.66699 2.16602 -5.16699 2.49902 -7.5s1.16602 -3.5 2.49902 -3.5s2.66602 3.33301 3.99902 10c5.33301 19.333 9.5 36 12.5 50s6.16699 25.667 9.5 35l76 238
c2.66699 8 5.5 15.833 8.5 23.5s7 14.5 12 20.5s11.333 10.833 19 14.5s17.5 5.5 29.5 5.5s21.833 -2.5 29.5 -7.5s14 -11.167 19 -18.5s8.83301 -15.333 11.5 -24s4.66699 -16.334 6 -23.001l80 -417h-94l-59 369l-2 8l-1 -1v-2c-2.66699 -6 -4.33398 -11.333 -5.00098 -16
s-2.33398 -10.667 -5.00098 -18l-86 -267c-10 -30.667 -19.167 -52.167 -27.5 -64.5s-20.833 -18.5 -37.5 -18.5c-17.333 0 -30.5 6.33301 -39.5 19s-18.167 34 -27.5 64l-84 266c-1.33301 3.33301 -3 9.16602 -5 17.499s-3.66699 14.166 -5 17.499
c0 0.666992 -0.166992 1 -0.5 1s-0.5 0.333008 -0.5 1v1l-2 -8l-59 -369h-94z" />
    <glyph glyph-name="afii10079" unicode="&#x43d;" horiz-adv-x="484" 
d="M40 480h88v-177h228v177h88v-480h-88v219h-228v-219h-88v480z" />
    <glyph glyph-name="afii10080" unicode="&#x43e;" horiz-adv-x="552" 
d="M276 490c34.667 0 67.167 -6.5 97.5 -19.5s56.833 -30.833 79.5 -53.5s40.5 -49.167 53.5 -79.5s19.5 -62.833 19.5 -97.5s-6.5 -67.167 -19.5 -97.5s-30.833 -56.833 -53.5 -79.5s-49.167 -40.5 -79.5 -53.5s-62.833 -19.5 -97.5 -19.5s-67.167 6.5 -97.5 19.5
s-56.833 30.833 -79.5 53.5s-40.5 49.167 -53.5 79.5s-19.5 62.833 -19.5 97.5s6.5 67.167 19.5 97.5s30.833 56.833 53.5 79.5s49.167 40.5 79.5 53.5s62.833 19.5 97.5 19.5zM276 406c-23.333 0 -44.833 -4 -64.5 -12s-36.5 -19.333 -50.5 -34s-25 -32.167 -33 -52.5
s-12 -42.833 -12 -67.5s4 -47.167 12 -67.5s19 -37.833 33 -52.5s30.833 -26 50.5 -34s41.167 -12 64.5 -12c24 0 45.833 4.16699 65.5 12.5s36.5 19.833 50.5 34.5s24.833 32.167 32.5 52.5s11.5 42.5 11.5 66.5s-3.83301 46.167 -11.5 66.5s-18.5 37.833 -32.5 52.5
s-30.833 26.167 -50.5 34.5s-41.5 12.5 -65.5 12.5z" />
    <glyph glyph-name="afii10081" unicode="&#x43f;" horiz-adv-x="476" 
d="M40 480l173.001 -0.000976562c25.333 0 52.5 -1.66699 81.5 -5s54.833 -12.666 77.5 -27.999c16 -10.667 28.333 -22.5 37 -35.5s15.167 -27 19.5 -42s7 -30.667 8 -47s1.5 -33.5 1.5 -51.5v-271h-88v270c0 6.66699 -0.166992 14.5 -0.5 23.5s-1.5 18.333 -3.5 28
s-5.16699 19 -9.5 28s-10.5 17.167 -18.5 24.5c-6.66699 6 -14.334 10.5 -23.001 13.5s-17.5 5.16699 -26.5 6.5s-17.833 2 -26.5 2h-22h-92v-396h-88v480z" />
    <glyph glyph-name="afii10082" unicode="&#x440;" horiz-adv-x="572" 
d="M40 -218l-0.000976562 426.004c0 56 7.83301 102.167 23.5 138.5s35.834 65.166 60.501 86.499s51.834 36.166 81.501 44.499s58.167 12.5 85.5 12.5c33.333 0 65.333 -6 96 -18s57.834 -29.167 81.501 -51.5s42.5 -49.333 56.5 -81s21 -67.167 21 -106.5
c0 -38.667 -7 -73.167 -21 -103.5s-32.667 -55.833 -56 -76.5s-49.833 -36.334 -79.5 -47.001s-60.167 -16 -91.5 -16c-23.333 0 -47 3.83301 -71 11.5s-45 19.167 -63 34.5v92c21.333 -20.667 42.166 -34.834 62.499 -42.501s40.5 -11.5 60.5 -11.5
c25.333 0 48.333 4 69 12s38.5 19 53.5 33s26.5 30.833 34.5 50.5s12 41.5 12 65.5c0 26 -4.33301 49.5 -13 70.5s-20.5 39 -35.5 54s-32.333 26.5 -52 34.5s-40.834 12 -63.501 12c-18 0 -36.667 -2.83301 -56 -8.5s-37 -16 -53 -31s-29.167 -35.833 -39.5 -62.5
s-15.5 -61 -15.5 -103v-419h-88z" />
    <glyph glyph-name="afii10083" unicode="&#x441;" horiz-adv-x="371" 
d="M349 396l-60.999 -0.00292969c-15.333 0 -33.333 -1.66699 -54 -5s-40.667 -12.666 -60 -27.999c-17.333 -13.333 -31.333 -30.833 -42 -52.5s-16 -45.167 -16 -70.5c0 -15.333 2.16699 -30.666 6.5 -45.999s11.166 -29.666 20.499 -42.999
c10 -14.667 21.333 -26.5 34 -35.5s25.667 -15.833 39 -20.5s26.5 -7.66699 39.5 -9s25.5 -2 37.5 -2h56v-84h-63c-44 0 -82.333 7 -115 21s-59.667 32.333 -81 55s-37.333 48.167 -48 76.5s-16 56.5 -16 84.5c0 16.667 1.66699 34 5 52s9 35.667 17 53s18.5 34 31.5 50
s29.167 30.667 48.5 44c28.667 19.333 57 31.5 85 36.5s53.667 7.5 77 7.5h59v-84z" />
    <glyph glyph-name="afii10084" unicode="&#x442;" horiz-adv-x="386" 
d="M388 480v-84h-151v-396h-88v396h-151v84h390z" />
    <glyph glyph-name="afii10085" unicode="&#x443;" horiz-adv-x="491" 
d="M126 480l0.00195312 -239.998c0 -13.333 0.166992 -27 0.5 -41s2 -27.667 5 -41s8 -26 15 -38s17.167 -22.333 30.5 -31c9.33301 -6 19.166 -10 29.499 -12s21.166 -3 32.499 -3c26.667 0 50.334 7.66699 71.001 23c12.667 10 22.667 21.333 30 34
s12.666 25.5 15.999 38.5s5.33301 25.667 6 38s1 23.166 1 32.499v240h88v-475c0 -17.333 -0.666992 -34.333 -2 -51s-4.33301 -32.834 -9 -48.501s-11.667 -30.667 -21 -45s-21.666 -27.833 -36.999 -40.5c-21.333 -17.333 -46.833 -30.166 -76.5 -38.499
s-58.5 -12.5 -86.5 -12.5c-31.333 0 -62.166 3.5 -92.499 10.5s-57.833 15.167 -82.5 24.5l9 87c25.333 -12 50.666 -21.333 75.999 -28s51 -10 77 -10c10 0 20.667 0.5 32 1.5s22.5 2.83301 33.5 5.5s21.667 6.33398 32 11.001s19.5 10.667 27.5 18
c8.66699 8 15.167 16.667 19.5 26s7.5 18.833 9.5 28.5s3 19.167 3 28.5v28v55c-6.66699 -10.667 -16.667 -21.834 -30 -33.501s-32.666 -20.5 -57.999 -26.5c-9.33301 -2 -18.833 -3.33301 -28.5 -4s-19.167 -1 -28.5 -1c-11.333 0 -22.833 0.833008 -34.5 2.5
s-23.167 4.5 -34.5 8.5c-26 9.33301 -46.333 22.333 -61 39s-25.834 35.167 -33.501 55.5s-12.334 41.666 -14.001 63.999s-2.5 43.833 -2.5 64.5v256h88z" />
    <glyph glyph-name="afii10086" unicode="&#x444;" horiz-adv-x="700" 
d="M270 396c-23.333 -2 -44 -7.49707 -62 -16.4971s-33.5 -20.667 -46.5 -35s-22.833 -30.5 -29.5 -48.5s-10 -36.667 -10 -56c0 -30 5.83301 -55.167 17.5 -75.5s26.5 -36.5 44.5 -48.5s37.833 -20.5 59.5 -25.5s42.5 -7.16699 62.5 -6.5v616h88v-220h14
c38.667 0 74 -6 106 -18s59.333 -28.833 82 -50.5s40.334 -47 53.001 -76s19 -60.5 19 -94.5c0 -28 -5.16699 -56.167 -15.5 -84.5s-25.5 -53.833 -45.5 -76.5s-44.833 -41.5 -74.5 -56.5s-63.834 -22.833 -102.501 -23.5v84c23.333 1.33301 44.166 6.66602 62.499 15.999
s33.833 21.333 46.5 36s22.334 31 29.001 49s10 36.333 10 55c0 15.333 -2.66699 32.166 -8 50.499s-14.833 35.5 -28.5 51.5s-32.5 29.167 -56.5 39.5s-54.333 15.166 -91 14.499v-616h-88v220h-17c-36 0 -69.667 6 -101 18s-58.5 28.667 -81.5 50
s-41.167 46.666 -54.5 75.999s-20 61 -20 95c0 28 5 56.167 15 84.5s25 53.833 45 76.5s44.833 41.334 74.5 56.001s64.167 22.667 103.5 24v-84z" />
    <glyph glyph-name="afii10087" unicode="&#x445;" horiz-adv-x="390" 
d="M7 480c42 0 79.333 -10.333 112 -31s58 -47.667 76 -81c18 33.333 43.333 60.333 76 81s70 31 112 31v-84c-17.333 0 -34.5 -2.83301 -51.5 -8.5s-32.333 -14.834 -46 -27.501s-24.834 -28.834 -33.501 -48.501s-13 -43.5 -13 -71.5s4.33301 -51.833 13 -71.5
s19.834 -35.834 33.501 -48.501s29 -21.834 46 -27.501s34.167 -8.5 51.5 -8.5v-84c-42 0 -79.333 10.333 -112 31s-58 47.667 -76 81c-18 -33.333 -43.333 -60.333 -76 -81s-70 -31 -112 -31v84c17.333 0 34.5 2.83301 51.5 8.5s32.333 14.834 46 27.501
s24.834 28.834 33.501 48.501s13 43.5 13 71.5s-4.33301 51.833 -13 71.5s-19.834 35.834 -33.501 48.501s-29 21.834 -46 27.501s-34.167 8.5 -51.5 8.5v84z" />
    <glyph glyph-name="afii10088" unicode="&#x446;" horiz-adv-x="533" 
d="M126 480v-281.997c0 -9.33301 0.166992 -18.833 0.5 -28.5s1.66602 -18.834 3.99902 -27.501s6.33301 -16.834 12 -24.501s13.834 -14.5 24.501 -20.5c8 -4.66699 18.167 -8 30.5 -10s29.5 -3 51.5 -3h274v-209h-76v125h-204c-34.667 0 -62.5 2.5 -83.5 7.5
s-38.167 11.5 -51.5 19.5c-16.667 10 -29.667 21.833 -39 35.5s-16.333 28 -21 43s-7.5 30.167 -8.5 45.5s-1.5 29.666 -1.5 42.999v286h88zM351 120.003v360h88v-360h-88z" />
    <glyph glyph-name="afii10089" unicode="&#x447;" horiz-adv-x="458" 
d="M126 480l0.000976562 -146.999c0 -12 0.666992 -23.333 2 -34s6 -20 14 -28s20.5 -14.5 37.5 -19.5s41.167 -7.5 72.5 -7.5h78v236h88v-480h-88v160h-94c-46.667 0 -83.334 6 -110.001 18s-46.5 26.833 -59.5 44.5s-21 36.667 -24 57s-4.5 39.166 -4.5 56.499v144h88z
" />
    <glyph glyph-name="afii10090" unicode="&#x448;" horiz-adv-x="704" 
d="M128 480v-284c0 -8.66699 0.166992 -17.334 0.5 -26.001s1.66602 -17.167 3.99902 -25.5s5.83301 -16.333 10.5 -24s11.334 -14.5 20.001 -20.5c11.333 -8 23.5 -12.667 36.5 -14s25.5 -2 37.5 -2h339v396h88v-480h-414c-24.667 0 -48.667 1.16699 -72 3.5
s-45.666 10.166 -66.999 23.499c-16 10 -28.833 21.333 -38.5 34s-16.834 25.834 -21.501 39.501s-7.66699 27.834 -9 42.501s-2 29.667 -2 45v292h88zM308 120v360h88v-360h-88z" />
    <glyph glyph-name="afii10091" unicode="&#x449;" horiz-adv-x="759" 
d="M128 480v-280.001c0 -18.667 2.5 -37.667 7.5 -57s18.167 -34.666 39.5 -45.999c12 -6.66699 25.833 -10.5 41.5 -11.5s34.167 -1.5 55.5 -1.5h477v-209h-77v125h-415h-33.5c-12.333 0 -25 0.666992 -38 2s-26 4 -39 8s-25.167 9.66699 -36.5 17
c-16 10 -28.667 21.667 -38 35s-16.333 27.5 -21 42.5s-7.66699 30.667 -9 47s-2 32.5 -2 48.5v280h88zM576 120.999v359h88v-359h-88zM308 120.999v359h88v-359h-88z" />
    <glyph glyph-name="afii10092" unicode="&#x44a;" horiz-adv-x="536" 
d="M194 480v-280.998c0 -9.33301 0.333008 -19 1 -29s2.66699 -20 6 -30s8.5 -19.5 15.5 -28.5s16.833 -16.833 29.5 -23.5c10.667 -5.33301 21.667 -9 33 -11s23 -3 35 -3c8.66699 0 17.167 0.5 25.5 1.5s16.5 3.16699 24.5 6.5c16 6.66699 29.667 17.167 41 31.5
s17 32.166 17 53.499c0 31.333 -10.667 56.166 -32 74.499s-47 27.5 -77 27.5c-15.333 0 -30.5 -2.83301 -45.5 -8.5s-27.5 -14.167 -37.5 -25.5v92c14.667 8.66699 30.167 15.167 46.5 19.5s31.833 6.5 46.5 6.5c26 0 50.333 -4.5 73 -13.5s42.5 -21.167 59.5 -36.5
s30.333 -33.5 40 -54.5s14.5 -43.5 14.5 -67.5c0 -31.333 -8.33301 -62.833 -25 -94.5s-41 -56.167 -73 -73.5c-16 -8.66699 -33 -14.667 -51 -18s-36.333 -5 -55 -5c-28.667 0 -55.667 4.33301 -81 13c-28 10.667 -50 25 -66 43s-28 37.167 -36 57.5
s-12.833 40.333 -14.5 60s-2.5 36.5 -2.5 50.5v182h-116v84h204z" />
    <glyph glyph-name="afii10093" unicode="&#x44b;" horiz-adv-x="620" 
d="M128 200c0 -12 0.994141 -25.165 2.99414 -39.498s6.83301 -28 14.5 -41s19.334 -23.833 35.001 -32.5s37.5 -13 65.5 -13c20.667 0 38 3 52 9s25.333 13.5 34 22.5s14.834 19 18.501 30s5.5 21.5 5.5 31.5c0 28 -9.16699 52 -27.5 72s-43.5 30 -75.5 30
c-15.333 0 -31.166 -2.66699 -47.499 -8s-30.166 -14 -41.499 -26v92c14.667 8.66699 30.167 15.167 46.5 19.5s32.166 6.5 47.499 6.5c26.667 0 51.334 -4.5 74.001 -13.5s42.334 -21.167 59.001 -36.5s29.667 -33.5 39 -54.5s14 -43.5 14 -67.5
c0 -31.333 -8.33301 -62.833 -25 -94.5s-41 -56.167 -73 -73.5c-16 -8.66699 -33 -14.667 -51 -18s-36.333 -5 -55 -5c-14 0 -27.667 0.833008 -41 2.5s-26.666 5.16699 -39.999 10.5c-28 10.667 -50 25.167 -66 43.5s-28 37.666 -36 57.999s-12.833 40.666 -14.5 60.999
s-2.5 37.833 -2.5 52.5v262h88v-280zM579.994 480.002v-480h-88v480h88z" />
    <glyph glyph-name="afii10094" unicode="&#x44c;" horiz-adv-x="484" 
d="M128 198c0 -20.667 2.66406 -40.6699 7.99707 -60.0029s19.666 -35.666 42.999 -48.999c10 -5.33301 20.667 -9.16602 32 -11.499s22.666 -3.5 33.999 -3.5c9.33301 0 18.333 0.666992 27 2s17.334 3.66602 26.001 6.99902c12.667 5.33301 25.5 14.666 38.5 27.999
s19.5 32 19.5 56c0 20 -4.33301 37.667 -13 53c-8.66699 14 -20.834 25.667 -36.501 35s-34.167 14 -55.5 14c-14.667 0 -30 -2.5 -46 -7.5s-29.667 -13.833 -41 -26.5v92c14 8.66699 29.333 15.167 46 19.5s33.334 6.5 50.001 6.5c28 0 53.333 -4.66699 76 -14
s41.334 -21 56.001 -35c16.667 -16 29.5 -35 38.5 -57s13.5 -44 13.5 -66c0 -31.333 -8.33301 -62.833 -25 -94.5s-41 -56.167 -73 -73.5c-16 -8.66699 -33.167 -14.667 -51.5 -18s-36.833 -5 -55.5 -5c-29.333 0 -56 4.33301 -80 13
c-29.333 10.667 -52.166 25.334 -68.499 44.001s-28.166 38.334 -35.499 59.001s-11.666 40.834 -12.999 60.501s-2 36.5 -2 50.5v263h88v-282z" />
    <glyph glyph-name="afii10095" unicode="&#x44d;" horiz-adv-x="385" 
d="M77 480c10.667 0 22.666 -0.329102 35.999 -0.996094s27.333 -2.16699 42 -4.5s29.334 -5.83301 44.001 -10.5s28.667 -10.667 42 -18c7.33301 -4 17.5 -10.833 30.5 -20.5s25.667 -22.667 38 -39s23 -36.333 32 -60s13.5 -51.834 13.5 -84.501
c0 -42 -7 -76.667 -21 -104s-29.333 -49.333 -46 -66s-34.167 -29.834 -52.5 -39.501s-36.333 -16.834 -54 -21.501s-34.834 -7.66699 -51.501 -9s-32 -2 -46 -2h-62v84h53c32 0 57.667 1.83301 77 5.5s35.333 9.16699 48 16.5c13.333 7.33301 26.5 18.666 39.5 33.999
s21.5 35.666 25.5 60.999h-243v84h243c-4.66699 19.333 -12.667 36.833 -24 52.5s-24.666 27.834 -39.999 36.501c-9.33301 5.33301 -23.5 10.333 -42.5 15s-46.5 7 -82.5 7h-54v84h55z" />
    <glyph glyph-name="afii10096" unicode="&#x44e;" horiz-adv-x="699" 
d="M128 285h143.996c-3.33301 -15.333 -5 -29.666 -5 -42.999c0 -24 4 -46.333 12 -67s19 -38.5 33 -53.5s30.667 -26.667 50 -35s40.666 -12.5 63.999 -12.5c20.667 0 40.5 4 59.5 12s35.833 19.167 50.5 33.5s26.167 31.666 34.5 51.999s12.5 43.166 12.5 68.499
c0 20 -3.16699 39.833 -9.5 59.5s-16.166 37.5 -29.499 53.5s-30.166 28.833 -50.499 38.5s-44.5 14.5 -72.5 14.5c-31.333 0 -58.666 -7.5 -81.999 -22.5s-41.666 -35.833 -54.999 -62.5h-94c8 24.667 19.5 47.334 34.5 68.001s32.833 38.5 53.5 53.5
s43.334 26.667 68.001 35s50.667 12.5 78 12.5c34.667 0 67.167 -6.5 97.5 -19.5s56.666 -30.833 78.999 -53.5s40 -49.167 53 -79.5s19.5 -62.833 19.5 -97.5s-6.5 -67.167 -19.5 -97.5s-30.667 -56.833 -53 -79.5s-48.666 -40.5 -78.999 -53.5s-62.833 -19.5 -97.5 -19.5
c-28 0 -55.5 4.83301 -82.5 14.5s-51.667 23.5 -74 41.5s-41.333 40 -57 66s-26.167 55.667 -31.5 89h-51v-201h-88v480h88v-195z" />
    <glyph glyph-name="afii10097" unicode="&#x44f;" horiz-adv-x="466" 
d="M45 59c0 17.333 0.5 35.833 1.5 55.5s7.16699 37.5 18.5 53.5c6 9.33301 14.167 17.5 24.5 24.5s21.166 12.5 32.499 16.5c-30.667 6.66699 -53.667 21.667 -69 45s-23 48 -23 74c0 12 1.66699 24.833 5 38.5s8.83301 27.167 16.5 40.5s18 25.833 31 37.5
s29.167 21.5 48.5 29.5c26 10.667 54.333 16 85 16c34 0 63.333 -4.5 88 -13.5s44.667 -20.167 60 -33.5c14.667 -13.333 26.167 -27.333 34.5 -42s14.5 -29.834 18.5 -45.501s6.5 -31.667 7.5 -48s1.5 -32.166 1.5 -47.499v-260h-88v237c0 14.667 -0.166992 30 -0.5 46
s-2.33301 31.333 -6 46s-10 28 -19 40s-22.167 21.333 -39.5 28c-9.33301 3.33301 -18.666 5.66602 -27.999 6.99902s-19 2 -29 2c-10.667 0 -21 -1 -31 -3s-19.667 -5.66699 -29 -11c-15.333 -8.66699 -25.5 -19 -30.5 -31s-7.5 -22.667 -7.5 -32
c0 -18 4.16699 -32.167 12.5 -42.5s18.5 -18 30.5 -23s24.333 -8 37 -9s23.667 -1.5 33 -1.5h71v-80h-61c-20 0 -35.833 -1.16699 -47.5 -3.5s-21.167 -6.16602 -28.5 -11.499c-16 -10.667 -25.333 -23.5 -28 -38.5s-4 -29.167 -4 -42.5v-77h-88v59z" />
    <glyph glyph-name="afii10071" unicode="&#x451;" horiz-adv-x="551" 
d="M183 158l-35.998 69.999l237 132c-18 19.333 -36.667 31.833 -56 37.5s-37.666 8.5 -54.999 8.5c-23.333 0 -44.666 -4.16699 -63.999 -12.5s-35.833 -20 -49.5 -35s-24.334 -32.5 -32.001 -52.5s-11.5 -42 -11.5 -66c0 -34.667 7 -64 21 -88s31 -42.333 51 -55
c25.333 -15.333 53.666 -23 84.999 -23c16 0 31.833 1.5 47.5 4.5s30.167 8.5 43.5 16.5c20 12 36.667 29.333 50 52s20.666 48.334 21.999 77.001l89 -11c-2.66699 -28.667 -8.66699 -53.834 -18 -75.501s-20.166 -40.167 -32.499 -55.5s-24.833 -27.833 -37.5 -37.5
s-23.667 -17.167 -33 -22.5c-19.333 -11.333 -40 -19.5 -62 -24.5s-44.333 -7.5 -67 -7.5c-38.667 0 -76 8.66699 -112 26c-40.667 20 -73.667 49.333 -99 88s-38 84 -38 136c0 35.333 6.33301 68.333 19 99s30.167 57.167 52.5 79.5s48.666 39.833 78.999 52.5
s63.166 19 98.499 19c23.333 0 46.333 -3.16699 69 -9.5s44.167 -15.666 64.5 -27.999s38.833 -28 55.5 -47s31 -41.5 43 -67.5zM124.002 610.999c0 15.333 5 28 15 38s22.667 15 38 15s28 -5 38 -15s15 -22.667 15 -38s-5 -28 -15 -38s-22.667 -15 -38 -15s-28 5 -38 15
s-15 22.667 -15 38zM429.002 610.999c0 -15.333 -5 -28 -15 -38s-22.667 -15 -38 -15s-28 5 -38 15s-15 22.667 -15 38s5 28 15 38s22.667 15 38 15s28 -5 38 -15s15 -22.667 15 -38z" />
    <glyph glyph-name="afii10099" unicode="&#x452;" horiz-adv-x="582" 
d="M132 0l-0.00292969 578.001h-100v64h100v58h88v-58h250v-64h-250v-141c21.333 21.333 42.666 35.5 63.999 42.5s42.333 10.5 63 10.5c17.333 0 34.5 -1.5 51.5 -4.5s33.167 -8.83301 48.5 -17.5c22 -12 39.333 -26.167 52 -42.5s22.167 -33.833 28.5 -52.5
s10.333 -37.5 12 -56.5s2.5 -36.833 2.5 -53.5v-268c0 -18 -1 -39.333 -3 -64s-9 -48 -21 -70s-31.167 -40.667 -57.5 -56s-64.166 -23 -113.499 -23h-26v84h30c30 0 53.167 4.5 69.5 13.5s26.833 25.833 31.5 50.5c2 11.333 2.83301 22.333 2.5 33s-0.5 22 -0.5 34v261
c0 8 -0.666992 20.333 -2 37s-5.66602 33.167 -12.999 49.5s-18.666 30.666 -33.999 42.999s-36.666 18.5 -63.999 18.5c-34.667 0 -63.5 -13 -86.5 -39s-34.5 -66.667 -34.5 -122v-245h-88z" />
    <glyph glyph-name="afii10100" unicode="&#x453;" horiz-adv-x="418" 
d="M36 273c0 10.667 0.164062 22.667 0.49707 36s1.83301 27.166 4.5 41.499s6.83398 28.5 12.501 42.5s14.167 27 25.5 39s23.5 21.333 36.5 28s26.5 11.5 40.5 14.5s28.333 4.66699 43 5s29.667 0.5 45 0.5h101v-84h-119c-15.333 0 -30.166 -1.16699 -44.499 -3.5
s-27.166 -10.166 -38.499 -23.499c-10.667 -13.333 -16.5 -29.333 -17.5 -48s-1.5 -34.667 -1.5 -48v-273h-88v273zM295.997 680h108l-130 -142h-68z" />
    <glyph glyph-name="afii10101" unicode="&#x454;" horiz-adv-x="384" 
d="M354 396l-54.002 -0.00488281c-36 0 -63.5 -2.33301 -82.5 -7s-33.167 -9.66699 -42.5 -15c-15.333 -8.66699 -28.666 -20.834 -39.999 -36.501s-19.333 -33.167 -24 -52.5h243v-84h-243c4 -25.333 12.5 -45.666 25.5 -60.999s26.167 -26.666 39.5 -33.999
c12.667 -7.33301 28.667 -12.833 48 -16.5s45 -5.5 77 -5.5h53v-84h-62c-13.333 0 -28.5 0.666992 -45.5 2s-34.5 4.33301 -52.5 9s-36 11.834 -54 21.501s-35.333 22.834 -52 39.501c-16 16.667 -31 38.834 -45 66.501s-21 62.167 -21 103.5
c0 32.667 4.5 60.834 13.5 84.501s19.667 43.667 32 60s24.833 29.333 37.5 39s22.667 16.5 30 20.5c26.667 14.667 55.334 24 86.001 28s56.667 6 78 6h55v-84z" />
    <glyph glyph-name="afii10102" unicode="&#x455;" horiz-adv-x="444" 
d="M28 84l230.004 -0.00195312c6.66699 0 14.334 0.166992 23.001 0.5s16.667 1.83301 24 4.5s13.5 7 18.5 13s7.5 14.667 7.5 26c0 10.667 -2.66699 19.334 -8 26.001s-13 12.334 -23 17.001s-22 9 -36 13l-48 14l-67.5 20.5c-22.333 7 -42.5 16 -60.5 27
s-32.5 24.833 -43.5 41.5s-16.5 37.667 -16.5 63c0 13.333 2 27.5 6 42.5s12.167 29 24.5 42s29.666 23.833 51.999 32.5s52.166 13 89.499 13h199v-84h-209h-19c-8 0 -15.667 -1.16699 -23 -3.5s-13.833 -6.33301 -19.5 -12s-8.5 -14.5 -8.5 -26.5
c0 -10.667 3.33301 -19.334 10 -26.001s15.167 -12.167 25.5 -16.5s22.166 -8.16602 35.499 -11.499s26.666 -7 39.999 -11l67.5 -20.5c23 -7 43.667 -16 62 -27s33.333 -25 45 -42s17.5 -38.833 17.5 -65.5c0 -14 -2.16699 -29 -6.5 -45s-12.333 -30.5 -24 -43.5
s-27.834 -23.833 -48.501 -32.5s-47 -13 -79 -13h-237v84z" />
    <glyph glyph-name="afii10103" unicode="&#x456;" horiz-adv-x="213" 
d="M30 0v480h88v-480h-88zM21 587c0 11.333 4 23 12 35s21.667 18 41 18s33 -6 41 -18s12 -23.667 12 -35s-4 -23 -12 -35s-21.667 -18 -41 -18s-33 6 -41 18s-12 23.667 -12 35z" />
    <glyph glyph-name="afii10104" unicode="&#x457;" horiz-adv-x="250" 
d="M65 0v480h88v-480h-88zM-24 600c0 16 5.33301 29.333 16 40s24 16 40 16s29.333 -5.33301 40 -16s16 -24 16 -40s-5.33301 -29.333 -16 -40s-24 -16 -40 -16s-29.333 5.33301 -40 16s-16 24 -16 40zM136 600c0 16 5.33301 29.333 16 40s24 16 40 16
s29.333 -5.33301 40 -16s16 -24 16 -40s-5.33301 -29.333 -16 -40s-24 -16 -40 -16s-29.333 5.33301 -40 16s-16 24 -16 40z" />
    <glyph glyph-name="afii10105" unicode="&#x458;" horiz-adv-x="222" 
d="M156 480l-0.000976562 -483c0 -18 -1 -39.333 -3 -64s-9 -48 -21 -70s-31.167 -40.667 -57.5 -56s-64.166 -23 -113.499 -23h-26v84h23c32 0 55.667 4 71 12s26 18.167 32 30.5s8.66699 26.333 8 42s-1 31.167 -1 46.5v481h88zM58.999 587c0 11.333 4 23 12 35
s21.667 18 41 18s33 -6 41 -18s12 -23.667 12 -35s-4 -23 -12 -35s-21.667 -18 -41 -18s-33 6 -41 18s-12 23.667 -12 35z" />
    <glyph glyph-name="afii10106" unicode="&#x459;" horiz-adv-x="783" 
d="M52 84l-0.00195312 110.996c0 16.667 0.666992 35.334 2 56.001s5.16602 41.5 11.499 62.5s16.166 41.5 29.499 61.5s32 38.333 56 55c27.333 19.333 58.833 32.5 94.5 39.5s70.5 10.5 104.5 10.5h77v-282c0 -20.667 2.66699 -40.667 8 -60
s19.666 -35.666 42.999 -48.999c10 -5.33301 20.667 -9.16602 32 -11.499s22.666 -3.5 33.999 -3.5c9.33301 0 18.333 0.666992 27 2s17.334 3.66602 26.001 6.99902c12.667 5.33301 25.5 14.666 38.5 27.999s19.5 32 19.5 56c0 20 -4.33301 37.667 -13 53
c-8.66699 14 -20.834 25.667 -36.501 35s-34.167 14 -55.5 14c-14.667 0 -30 -2.5 -46 -7.5s-29.667 -13.833 -41 -26.5v92c14 8.66699 29.333 15.167 46 19.5s33.334 6.5 50.001 6.5c28 0 53.333 -4.66699 76 -14s41.334 -21 56.001 -35c16.667 -16 29.5 -35 38.5 -57
s13.5 -44 13.5 -66c0 -31.333 -8.33301 -62.833 -25 -94.5s-41 -56.167 -73 -73.5c-16 -8.66699 -33.167 -14.667 -51.5 -18s-36.833 -5 -55.5 -5c-29.333 0 -56 4.33301 -80 13c-29.333 10.667 -52.166 25.334 -68.499 44.001s-28.166 38.334 -35.499 59.001
s-11.666 40.834 -12.999 60.501s-2 36.5 -2 50.5v179h-14c-19.333 0 -40.666 -1.66699 -63.999 -5s-45.666 -13.666 -66.999 -30.999c-14 -12 -25 -24.833 -33 -38.5s-13.833 -27.667 -17.5 -42s-5.83398 -28.833 -6.50098 -43.5s-1 -28.334 -1 -41.001v-195h-146v84h62z
" />
    <glyph glyph-name="afii10107" unicode="&#x45a;" horiz-adv-x="797" 
d="M353 480l88 0.00195312v-282c0 -20.667 2.66699 -40.667 8 -60s19.666 -35.666 42.999 -48.999c10 -5.33301 20.667 -9.16602 32 -11.499s22.666 -3.5 33.999 -3.5c9.33301 0 18.333 0.666992 27 2s17.334 3.66602 26.001 6.99902
c12.667 5.33301 25.5 14.666 38.5 27.999s19.5 32 19.5 56c0 20 -4.33301 37.667 -13 53c-8.66699 14 -20.834 25.667 -36.501 35s-34.167 14 -55.5 14c-14.667 0 -30 -2.5 -46 -7.5s-29.667 -13.833 -41 -26.5v92c14 8.66699 29.333 15.167 46 19.5s33.334 6.5 50.001 6.5
c28 0 53.333 -4.66699 76 -14s41.334 -21 56.001 -35c16.667 -16 29.5 -35 38.5 -57s13.5 -44 13.5 -66c0 -31.333 -8.33301 -62.833 -25 -94.5s-41 -56.167 -73 -73.5c-16 -8.66699 -33.167 -14.667 -51.5 -18s-36.833 -5 -55.5 -5c-29.333 0 -56 4.33301 -80 13
c-27.333 10 -48.833 23.333 -64.5 40s-27.5 34.667 -35.5 54s-13.167 38.666 -15.5 57.999s-3.5 36.666 -3.5 51.999v12h-228v-219h-88v480h88v-177h228v177z" />
    <glyph glyph-name="afii10108" unicode="&#x45b;" horiz-adv-x="582" 
d="M132 0l-0.00195312 578.001h-100v64h100v58h88v-58h250v-64h-250v-141c21.333 21.333 42.666 35.5 63.999 42.5s42.333 10.5 63 10.5c17.333 0 34.5 -1.5 51.5 -4.5s33.167 -8.83301 48.5 -17.5c22 -12 39.333 -26.167 52 -42.5s22.167 -33.833 28.5 -52.5
s10.333 -37.5 12 -56.5s2.5 -36.833 2.5 -53.5v-263h-88v258c0 8 -0.666992 20.333 -2 37s-5.66602 33.167 -12.999 49.5s-18.666 30.666 -33.999 42.999s-36.666 18.5 -63.999 18.5c-34.667 0 -63.5 -13 -86.5 -39s-34.5 -66.667 -34.5 -122v-245h-88z" />
    <glyph glyph-name="afii10109" unicode="&#x45c;" horiz-adv-x="460" 
d="M124 480l0.00292969 -191.002h56c12 0 22.5 2 31.5 6s17.333 10.167 25 18.5s15 18.666 22 30.999l23.5 42.5l48 93h94l-52 -99l-33.5 -64c-11 -20.667 -28.167 -39.667 -51.5 -57c21.333 -3.33301 40.166 -10 56.499 -20s29.166 -21.333 38.499 -34
c14 -19.333 22.333 -40.666 25 -63.999s4 -46.666 4 -69.999v-72h-88v73c0 12.667 -0.833008 26.834 -2.5 42.501s-5.83398 30 -12.501 43s-17.167 24 -31.5 33s-33.833 13.5 -58.5 13.5h-94v-205h-88v480h88zM271.003 679.998h108l-130 -142h-68z" />
    <glyph glyph-name="afii10110" unicode="&#x45e;" horiz-adv-x="491" 
d="M126 480l0.00195312 -239.998c0 -13.333 0.166992 -27 0.5 -41s2 -27.667 5 -41s8 -26 15 -38s17.167 -22.333 30.5 -31c9.33301 -6 19.166 -10 29.499 -12s21.166 -3 32.499 -3c26.667 0 50.334 7.66699 71.001 23c12.667 10 22.667 21.333 30 34
s12.666 25.5 15.999 38.5s5.33301 25.667 6 38s1 23.166 1 32.499v240h88v-475c0 -17.333 -0.666992 -34.333 -2 -51s-4.33301 -32.834 -9 -48.501s-11.667 -30.667 -21 -45s-21.666 -27.833 -36.999 -40.5c-21.333 -17.333 -46.833 -30.166 -76.5 -38.499
s-58.5 -12.5 -86.5 -12.5c-31.333 0 -62.166 3.5 -92.499 10.5s-57.833 15.167 -82.5 24.5l9 87c25.333 -12 50.666 -21.333 75.999 -28s51 -10 77 -10c10 0 20.667 0.5 32 1.5s22.5 2.83301 33.5 5.5s21.667 6.33398 32 11.001s19.5 10.667 27.5 18
c8.66699 8 15.167 16.667 19.5 26s7.5 18.833 9.5 28.5s3 19.167 3 28.5v28v55c-6.66699 -10.667 -16.667 -21.834 -30 -33.501s-32.666 -20.5 -57.999 -26.5c-9.33301 -2 -18.833 -3.33301 -28.5 -4s-19.167 -1 -28.5 -1c-11.333 0 -22.833 0.833008 -34.5 2.5
s-23.167 4.5 -34.5 8.5c-26 9.33301 -46.333 22.333 -61 39s-25.834 35.167 -33.501 55.5s-12.334 41.666 -14.001 63.999s-2.5 43.833 -2.5 64.5v256h88zM140.002 678.002c0.666992 -6 2.5 -13.5 5.5 -22.5s8.33301 -17.5 16 -25.5s18 -14.833 31 -20.5
s30.167 -8.5 51.5 -8.5c20.667 0 37.667 2.83301 51 8.5s23.833 12.5 31.5 20.5s13 16.5 16 25.5s4.83301 16.5 5.5 22.5h50c0 -16.667 -2.83301 -33.167 -8.5 -49.5s-14.667 -30.833 -27 -43.5s-28.333 -22.834 -48 -30.501s-43.167 -11.5 -70.5 -11.5
s-50.833 3.83301 -70.5 11.5s-35.667 17.834 -48 30.501s-21.333 27.167 -27 43.5s-8.5 32.833 -8.5 49.5h50z" />
    <glyph glyph-name="afii10193" unicode="&#x45f;" horiz-adv-x="476" 
d="M128 480v-396h222v396h88v-480h-155v-208h-88v208h-155v480h88z" />
    <glyph glyph-name="afii10050" unicode="&#x490;" horiz-adv-x="451" 
d="M58 0v461.999c0 16 0.5 32.667 1.5 50s3.33301 34.5 7 51.5s9.5 33.333 17.5 49s19 29.834 33 42.501c13.333 12 27.833 21 43.5 27s31.834 10.333 48.501 13s33.167 4.16699 49.5 4.5s32.166 0.5 47.499 0.5h61v71h78v-159h-138h-32.5c-11 0 -21.833 -1 -32.5 -3
s-21 -5.16699 -31 -9.5s-19 -10.833 -27 -19.5s-14.167 -18.167 -18.5 -28.5s-7.5 -21 -9.5 -32s-3.16699 -21.667 -3.5 -32s-0.5 -19.5 -0.5 -27.5v-460h-94z" />
    <glyph glyph-name="afii10098" unicode="&#x491;" horiz-adv-x="327" 
d="M36 273c0 50.667 6.16406 90 18.4971 118s28.5 48.5 48.5 61.5s42.333 20.833 67 23.5s49.334 4 74.001 4h13v116h88v-200h-101c-31.333 0 -55.166 -3.16699 -71.499 -9.5s-28.166 -15 -35.499 -26s-11.333 -24 -12 -39s-1 -31.167 -1 -48.5v-273h-88v273z" />
    <glyph glyph-name="endash" unicode="&#x2013;" 
d="M27 208v64h500v-64h-500z" />
    <glyph glyph-name="emdash" unicode="&#x2014;" horiz-adv-x="1054" 
d="M27 208v64h1000v-64h-1000z" />
    <glyph glyph-name="quoteleft" unicode="&#x2018;" horiz-adv-x="222" 
d="M166 498h-74l-46 202h84z" />
    <glyph glyph-name="quoteright" unicode="&#x2019;" horiz-adv-x="222" 
d="M56 498l36 202h84l-46 -202h-74z" />
    <glyph glyph-name="quotesinglbase" unicode="&#x201a;" horiz-adv-x="222" 
d="M36 -102l36 202h84l-46 -202h-74z" />
    <glyph glyph-name="quotedblleft" unicode="&#x201c;" horiz-adv-x="389" 
d="M162 498h-74l-46 202h84zM347 498h-74l-46 202h84z" />
    <glyph glyph-name="quotedblright" unicode="&#x201d;" horiz-adv-x="389" 
d="M42 498l36 202h84l-46 -202h-74zM227 498l36 202h84l-46 -202h-74z" />
    <glyph glyph-name="quotedblbase" unicode="&#x201e;" horiz-adv-x="389" 
d="M42 -102l36 202h84l-46 -202h-74zM227 -102l36 202h84l-46 -202h-74z" />
    <glyph glyph-name="dagger" unicode="&#x2020;" horiz-adv-x="500" 
d="M229 494l-28 206h98l-28 -206l164 30v-96l-164 30l28 -168c-4 -21.333 -7.66699 -47 -11 -77s-6.5 -61 -9.5 -93s-5.33301 -63.667 -7 -95s-2.5 -59 -2.5 -83v-76h-38v76c0 24 -0.833008 51.667 -2.5 83s-4 63 -7 95s-6.16699 63 -9.5 93s-7 55.667 -11 77l28 168
l-164 -30v96z" />
    <glyph glyph-name="daggerdbl" unicode="&#x2021;" horiz-adv-x="500" 
d="M299 700l-28 -206l164 30v-96l-164 30l28 -175l-28 -175l164 31v-96l-164 29l28 -206h-98l28 206l-164 -29v96l164 -31l-28 175l28 175l-164 -30v96l164 -30l-28 206h98z" />
    <glyph glyph-name="bullet" unicode="&#x2022;" horiz-adv-x="500" 
d="M250 525c24.667 0 47.667 -4.5 69 -13.5s39.833 -21.333 55.5 -37s28 -34.167 37 -55.5s13.5 -44.333 13.5 -69s-4.5 -47.667 -13.5 -69s-21.333 -39.833 -37 -55.5s-34.167 -28 -55.5 -37s-44.333 -13.5 -69 -13.5s-47.667 4.5 -69 13.5s-39.833 21.333 -55.5 37
s-28 34.167 -37 55.5s-13.5 44.333 -13.5 69s4.5 47.667 13.5 69s21.333 39.833 37 55.5s34.167 28 55.5 37s44.333 13.5 69 13.5z" />
    <glyph glyph-name="ellipsis" unicode="&#x2026;" horiz-adv-x="1000" 
d="M108 53c0 16 5.83301 29.833 17.5 41.5s25.5 17.5 41.5 17.5s29.833 -5.83301 41.5 -17.5s17.5 -25.5 17.5 -41.5s-5.83301 -29.833 -17.5 -41.5s-25.5 -17.5 -41.5 -17.5s-29.833 5.83301 -41.5 17.5s-17.5 25.5 -17.5 41.5zM441 53c0 16 5.83301 29.833 17.5 41.5
s25.5 17.5 41.5 17.5s29.833 -5.83301 41.5 -17.5s17.5 -25.5 17.5 -41.5s-5.83301 -29.833 -17.5 -41.5s-25.5 -17.5 -41.5 -17.5s-29.833 5.83301 -41.5 17.5s-17.5 25.5 -17.5 41.5zM774 53c0 16 5.83301 29.833 17.5 41.5s25.5 17.5 41.5 17.5
s29.833 -5.83301 41.5 -17.5s17.5 -25.5 17.5 -41.5s-5.83301 -29.833 -17.5 -41.5s-25.5 -17.5 -41.5 -17.5s-29.833 5.83301 -41.5 17.5s-17.5 25.5 -17.5 41.5z" />
    <glyph glyph-name="perthousand" unicode="&#x2030;" horiz-adv-x="1072" 
d="M723 152c0 23.333 4.33301 45 13 65s20.5 37.333 35.5 52s32.5 26.167 52.5 34.5s41 12.5 63 12.5s43 -4.16699 63 -12.5s37.5 -19.833 52.5 -34.5s26.833 -32 35.5 -52s13 -41.667 13 -65s-4.33301 -45 -13 -65s-20.5 -37.333 -35.5 -52s-32.5 -26.167 -52.5 -34.5
s-41 -12.5 -63 -12.5s-43 4.16699 -63 12.5s-37.5 19.833 -52.5 34.5s-26.833 32 -35.5 52s-13 41.667 -13 65zM801 152c0 -25.333 8.5 -46 25.5 -62s37.167 -24 60.5 -24s43.5 8 60.5 24s25.5 36.667 25.5 62s-8.5 46 -25.5 62s-37.167 24 -60.5 24s-43.5 -8 -60.5 -24
s-25.5 -36.667 -25.5 -62zM445 152c0 -25.333 8.5 -46 25.5 -62s37.167 -24 60.5 -24s43.5 8 60.5 24s25.5 36.667 25.5 62s-8.5 46 -25.5 62s-37.167 24 -60.5 24s-43.5 -8 -60.5 -24s-25.5 -36.667 -25.5 -62zM21 548c0 23.333 4.33301 45 13 65s20.5 37.333 35.5 52
s32.5 26.167 52.5 34.5s41 12.5 63 12.5s43 -4.16699 63 -12.5s37.5 -19.833 52.5 -34.5s26.833 -32 35.5 -52s13 -41.667 13 -65s-4.33301 -45 -13 -65s-20.5 -37.333 -35.5 -52s-32.5 -26.167 -52.5 -34.5s-41 -12.5 -63 -12.5s-43 4.16699 -63 12.5
s-37.5 19.833 -52.5 34.5s-26.833 32 -35.5 52s-13 41.667 -13 65zM99 548c0 -25.333 8.5 -46 25.5 -62s37.167 -24 60.5 -24s43.5 8 60.5 24s25.5 36.667 25.5 62s-8.5 46 -25.5 62s-37.167 24 -60.5 24s-43.5 -8 -60.5 -24s-25.5 -36.667 -25.5 -62zM161 -12h-62l465 724
h62zM367 152c0 23.333 4.33301 45 13 65s20.5 37.333 35.5 52s32.5 26.167 52.5 34.5s41 12.5 63 12.5s43 -4.16699 63 -12.5s37.5 -19.833 52.5 -34.5s26.833 -32 35.5 -52s13 -41.667 13 -65s-4.33301 -45 -13 -65s-20.5 -37.333 -35.5 -52s-32.5 -26.167 -52.5 -34.5
s-41 -12.5 -63 -12.5s-43 4.16699 -63 12.5s-37.5 19.833 -52.5 34.5s-26.833 32 -35.5 52s-13 41.667 -13 65z" />
    <glyph glyph-name="guilsinglleft" unicode="&#x2039;" horiz-adv-x="328" 
d="M270 86h-76l-125 154l125 154h76l-125 -154z" />
    <glyph glyph-name="guilsinglright" unicode="&#x203a;" horiz-adv-x="328" 
d="M58 394h76l125 -154l-125 -154h-76l125 154z" />
    <glyph glyph-name="Euro" unicode="&#x20ac;" horiz-adv-x="540" 
d="M477 570c-4.66699 34.667 -18.6719 60.0039 -42.0049 76.0039s-52 24 -86 24c-29.333 0 -54 -5.83301 -74 -17.5s-36.667 -28.334 -50 -50.001s-23.666 -47.834 -30.999 -78.501s-12.666 -65.334 -15.999 -104.001h267l-14 -37h-255v-32v-33h228l-15 -37h-211
c5.33301 -80.667 22.333 -142.667 51 -186s69 -65 121 -65c14.667 0 29.167 1.83301 43.5 5.5s27.166 9.5 38.499 17.5s21 18.333 29 31s13.333 28.334 16 47.001h20l-5 -80c-13.333 -16.667 -32.166 -30.834 -56.499 -42.501s-59.166 -17.5 -104.499 -17.5
c-76 0 -133.833 24.5 -173.5 73.5s-63.167 121.167 -70.5 216.5h-67l14 37h49c-0.666992 4.66699 -1 10.334 -1 17.001v18v14c0 6 0.333008 11.333 1 16h-63l14 37h51c4.66699 46 12.5 87 23.5 123s26.167 66.333 45.5 91s43.333 43.5 72 56.5s63.667 19.5 105 19.5
c24 0 44.833 -1.66699 62.5 -5s32.834 -7.83301 45.501 -13.5s23.334 -11.834 32.001 -18.501s15.667 -13.334 21 -20.001l5 -83h-20z" />
    <glyph glyph-name="afii61352" unicode="&#x2116;" horiz-adv-x="945" 
d="M54 0l0.00292969 594c0 7.33301 0.333008 17.333 1 30s3.5 25 8.5 37s13 22.5 24 31.5s27.167 13.5 48.5 13.5c27.333 0 48.166 -9 62.499 -27s29.166 -43.333 44.499 -76l225 -465h2v562h94v-604c0 -10 -0.333008 -21 -1 -33s-3.33398 -23 -8.00098 -33
s-11.834 -18.5 -21.501 -25.5s-23.5 -10.5 -41.5 -10.5c-14.667 0 -26.834 2 -36.501 6s-18.167 9.5 -25.5 16.5s-13.666 15.333 -18.999 25s-10.666 20.167 -15.999 31.5l-245 501h-2v-574h-94zM625.003 557c0 20 3.66699 38.667 11 56s17.5 32.5 30.5 45.5
s28.167 23.167 45.5 30.5s36 11 56 11s38.667 -3.66699 56 -11s32.5 -17.5 45.5 -30.5s23.167 -28.167 30.5 -45.5s11 -36 11 -56s-3.66699 -38.667 -11 -56s-17.5 -32.5 -30.5 -45.5s-28.167 -23.167 -45.5 -30.5s-36 -11 -56 -11s-38.667 3.66699 -56 11
s-32.5 17.5 -45.5 30.5s-23.167 28.167 -30.5 45.5s-11 36 -11 56zM625.003 286v64h286v-64h-286zM693.003 557c0 -23.333 6.66699 -42.333 20 -57s31.666 -22 54.999 -22s41.666 7.33301 54.999 22s20 33.667 20 57s-6.66699 42.333 -20 57s-31.666 22 -54.999 22
s-41.666 -7.33301 -54.999 -22s-20 -33.667 -20 -57z" />
    <glyph glyph-name="trademark" unicode="&#x2122;" horiz-adv-x="1059" 
d="M444 700v-84h-151v-396h-88v396h-151v84h390zM501 637c1.33301 6.66699 3.33301 14.334 6 23.001s6.5 16.667 11.5 24s11.333 13.5 19 18.5s17.5 7.5 29.5 7.5s21.833 -1.83301 29.5 -5.5s14 -8.5 19 -14.5s9 -12.833 12 -20.5s5.83301 -15.5 8.5 -23.5l73 -236
c2.66699 -8 5 -16.167 7 -24.5s4 -16.166 6 -23.499c1.33301 -5.33301 2.83301 -10.833 4.5 -16.5l6.5 -21.5c1.33301 -2.66699 2.16602 -5.16699 2.49902 -7.5s1.16602 -3.5 2.49902 -3.5s2.66602 3.33301 3.99902 10c5.33301 19.333 9.5 36 12.5 50s6.16699 25.667 9.5 35
l76 238c2.66699 8 5.5 15.833 8.5 23.5s7 14.5 12 20.5s11.333 10.833 19 14.5s17.5 5.5 29.5 5.5s21.833 -2.5 29.5 -7.5s14 -11.167 19 -18.5s8.83301 -15.333 11.5 -24s4.66699 -16.334 6 -23.001l80 -417h-94l-59 369l-2 8l-1 -1v-2
c-0.666992 -0.666992 -1 -1.33398 -1 -2.00098s-0.333008 -1.66699 -1 -3c-2 -6.66699 -3.66699 -11.834 -5 -15.501s-2.66602 -8.16699 -3.99902 -13.5l-85 -268c-9.33301 -30 -18.166 -51.333 -26.499 -64s-21.166 -19 -38.499 -19c-15.333 0 -27.833 5.66699 -37.5 17
s-19.5 33.333 -29.5 66l-83 267c-4 13.333 -6.5 21.833 -7.5 25.5s-2.16699 6.83398 -3.5 9.50098c0 0.666992 -0.166992 1 -0.5 1s-0.5 0.333008 -0.5 1v1l-2 -8l-59 -369h-94z" />
    <glyph glyph-name=".null" horiz-adv-x="0" 
 />
    <glyph glyph-name="nonmarkingreturn" horiz-adv-x="233" 
 />
    </font>
</defs>
</svg>
